<?xml version="1.0" standalone="no"?>
<!DOCTYPE svg PUBLIC "-//W3C//DTD SVG 1.1//EN" "http://www.w3.org/Graphics/SVG/1.1/DTD/svg11.dtd" >
<svg xmlns="http://www.w3.org/2000/svg" xmlns:xlink="http://www.w3.org/1999/xlink" version="1.1">
<metadata>
Created by FontForge 20201107 at Tue Jan 22 08:52:58 2019
 By 
(c) 2019, Creatype Studio Co.
</metadata>
<defs>
<font id="BrittanySignatureRegular" horiz-adv-x="0" >
  <font-face 
    font-family="Brittany Signature"
    font-weight="400"
    font-stretch="normal"
    units-per-em="1000"
    panose-1="0 0 0 0 0 0 0 0 0 0"
    ascent="800"
    descent="-200"
    x-height="232"
    cap-height="991"
    bbox="-405 -893 1294.73 1169.73"
    underline-thickness="50"
    underline-position="-150"
    unicode-range="U+000A-FB06"
  />
<missing-glyph horiz-adv-x="527" 
d="M50 700h427v-700h-427v700zM78 680l185 -309l186 309h-371zM251 350l-180 300v-601zM264 329l-185 -308h370zM276 350l181 -303v605z" />
    <glyph glyph-name="tt.liga" unicode="tt" horiz-adv-x="411" 
d="M939 581q5 -7 4 -15t-7 -12q-12 -9 -24 0q-41 14 -504 7q-73 -303 -142 -641.5t-83 -460.5q2 0 5 -1q7 -3 10.5 -10t0.5 -15q-6 -14 -9.5 -22t-10.5 -15.5t-15 -7.5q-3 0 -7 1q-13 4 -15.5 21t2.5 45q4 43 18 122q25 150 75 390q59 286 121 551q-134 -350 -218 -544
q-32 -73 -57 -124t-41 -78.5t-29 -41.5t-21 -16.5t-17 0.5q-22 5 -25.5 42.5t12.5 158.5q48 337 131 640q-52 -1 -144 -3q-172 -4 -203 -4q-8 0 -13.5 5.5t-5.5 13.5t5.5 13.5t13.5 5.5q30 0 202 4q79 2 156 4q29 103 59 191q3 7 10 10.5t14.5 1t11 -9.5t0.5 -15
q-28 -82 -55 -177q110 2 203 4q44 115 92 245q3 7 10 10.5t14 1t11 -9.5t2 -14q-27 -98 -59 -232q147 3 245.5 2t152 -1.5t81 -5t33.5 -7t10 -7.5zM118 19q84 198 215 541q-91 -1 -200 -4q-84 -305 -133 -646q-16 -110 -12 -150q39 47 130 259z" />
    <glyph glyph-name="st.liga" unicode="st" horiz-adv-x="625" 
d="M1187 634q5 -6 4 -14t-7 -13q-12 -10 -24 0q-41 14 -516 7q-66 -275 -133 -596q-80 -385 -97 -529q2 0 4 -1q8 -3 11 -10t1 -15q-6 -15 -9.5 -22.5t-10.5 -15t-15 -7.5q-3 0 -7 1q-13 4 -15.5 21t2.5 45q4 43 18 121q25 151 75 391q67 327 137 617q-19 -1 -38 -1
q-150 -269 -395 -734q22 -69 8 -138q-17 -88 -77 -144q-24 -23 -46 -29t-37 5q-37 29 19 137l27 50q42 81 64 122q-11 27 -28 53q-48 72 -73 123t-22 93q2 39 21 71.5t52 52.5q28 17 59 19.5t56 -9.5q8 -3 10.5 -10.5t-1 -15t-11 -10t-14.5 1.5q-36 17 -79 -9
q-52 -31 -55 -93q-2 -34 21.5 -80.5t67.5 -112.5q10 -15 18 -31q227 429 370 687q-132 -2 -351 -7q-178 -4 -209 -4h-1q-7 0 -13 5.5t-6 13.5t5.5 13.5t13.5 5.5q32 0 209 4q210 5 374 8q68 122 128 225q8 15 23.5 8.5t11.5 -22.5q-24 -88 -53 -209q150 3 250.5 2t155 -1.5
t82.5 -5t34.5 -7t10.5 -7.5zM107 -339q50 76 37 166q-8 -17 -24.5 -48t-19.5 -37l-27 -50q-34 -64 -29 -88q9 1 27 15.5t36 41.5zM588 652h11.5h14.5q10 43 20 81q-21 -37 -46 -81z" />
    <glyph glyph-name=".notdef" horiz-adv-x="527" 
d="M50 700h427v-700h-427v700zM78 680l185 -309l186 309h-371zM251 350l-180 300v-601zM264 329l-185 -308h370zM276 350l181 -303v605z" />
    <glyph glyph-name=".null" 
 />
    <glyph glyph-name=".null" 
 />
    <glyph glyph-name="nonmarkingreturn" horiz-adv-x="333" 
 />
    <glyph glyph-name="LF" unicode="&#xa;" 
 />
    <glyph glyph-name="controlCR" unicode="&#xd;" 
 />
    <glyph glyph-name="space" unicode=" " horiz-adv-x="307" 
 />
    <glyph glyph-name="exclam" unicode="!" horiz-adv-x="293" 
d="M229.5 538q7.5 -2 11.5 -9t1 -15q-42 -147 -84 -343q-27 -124 -45 -200q-4 -14 -19 -14h-5q-7 2 -11.5 9t-2.5 14q19 76 46 200q42 196 84 345q3 7 10 11t14.5 2zM69 -95q22 7 27 -10q6 -18 -13 -26q-8 -3 -18 -3q-12 1 -14.5 9.5t3.5 18t15 11.5z" />
    <glyph glyph-name="quotedbl" unicode="&#x22;" horiz-adv-x="267" 
d="M115 547q24 -17 24 -42q0 -40 -58 -83q-5 -4 -12 -4q-9 0 -15 8q-5 6 -4 14t8 13q42 31 42 52q0 6 -7 11t-8 13t3.5 14.5t12.5 7.5t14 -4zM197 547q20 -14 20 -39q0 -26 -21.5 -56t-50.5 -52q-6 -4 -12 -4q-10 0 -15 8q-5 6 -4 14t8 13q23 18 39.5 40.5t16.5 36.5
q0 5 -4 8q-6 5 -7.5 13t3.5 14.5t13 7.5t14 -4z" />
    <glyph glyph-name="quotedbl" unicode="&#x201d;" horiz-adv-x="267" 
d="M115 547q24 -17 24 -42q0 -40 -58 -83q-5 -4 -12 -4q-9 0 -15 8q-5 6 -4 14t8 13q42 31 42 52q0 6 -7 11t-8 13t3.5 14.5t12.5 7.5t14 -4zM197 547q20 -14 20 -39q0 -26 -21.5 -56t-50.5 -52q-6 -4 -12 -4q-10 0 -15 8q-5 6 -4 14t8 13q23 18 39.5 40.5t16.5 36.5
q0 5 -4 8q-6 5 -7.5 13t3.5 14.5t13 7.5t14 -4z" />
    <glyph glyph-name="quotedbl" unicode="&#x201c;" horiz-adv-x="267" 
d="M115 547q24 -17 24 -42q0 -40 -58 -83q-5 -4 -12 -4q-9 0 -15 8q-5 6 -4 14t8 13q42 31 42 52q0 6 -7 11t-8 13t3.5 14.5t12.5 7.5t14 -4zM197 547q20 -14 20 -39q0 -26 -21.5 -56t-50.5 -52q-6 -4 -12 -4q-10 0 -15 8q-5 6 -4 14t8 13q23 18 39.5 40.5t16.5 36.5
q0 5 -4 8q-6 5 -7.5 13t3.5 14.5t13 7.5t14 -4z" />
    <glyph glyph-name="numbersign" unicode="#" horiz-adv-x="764" 
d="M695 225q8 0 13.5 -5.5t5.5 -13.5t-5.5 -14t-13.5 -6q-59 0 -180 -1h-11h-10q-35 -36 -74 -76q74 -4 135 -12q8 0 13 -6.5t4 -14.5q-1 -7 -6.5 -12t-12.5 -5h-3q-73 9 -165 13q-155 -157 -200 -196q-5 -5 -13 -5t-14 7q-5 6 -4.5 14t6.5 13q41 36 173 169q-37 1 -75 2
q-106 -107 -168 -177q-5 -7 -14 -7q-7 0 -13 5t-6.5 13t4.5 14q51 57 144 153h-125h-11q-8 0 -13.5 5.5t-5.5 13.5t5.5 13.5t13.5 5.5h11h162l69 69q-89 0 -158 2q-8 1 -13.5 6.5t-5 13.5t6.5 13.5t13 5.5q83 -3 197 -3q155 148 224 186q7 4 14.5 2t11.5 -9t1.5 -15
t-9.5 -11q-57 -32 -185 -153q32 1 69 1q97 102 109 121q4 7 12 8.5t14.5 -2.5t8.5 -12t-2 -15q-12 -18 -88 -99q106 1 164 1zM369 111q37 38 71 73h-73q-35 -34 -72 -70q39 -1 74 -3z" />
    <glyph glyph-name="dollar" unicode="$" horiz-adv-x="342" 
d="M363 503q7 -3 10 -10.5t-0.5 -14.5t-11 -10t-14.5 0q-16 8 -33 11q-50 -124 -98 -252q66 -99 22 -186q-12 -23 -31.5 -42t-44 -31t-49.5 -16q-17 -42 -32 -80q-5 -12 -18 -12q-4 0 -8 2q-7 3 -10 10.5t0 14.5q13 31 26 64q-60 8 -87 61q-4 7 -1.5 14.5t10 11.5t15 1.5
t10.5 -10.5q20 -39 68 -41q20 53 59 159q18 49 28 75q-27 40 -33.5 87t4.5 86.5t36 69.5q44 54 109 55q11 27 22 53q3 7 10 10t14.5 0t10.5 -10.5t0 -14.5q-8 -19 -17 -43q17 -4 34 -12zM209 440q-26 -32 -32 -77t14 -94q40 106 82 211q-37 -7 -64 -40zM204 59q27 54 -5 121
q-5 -11 -18 -47q-33 -91 -51 -137q50 18 74 63z" />
    <glyph glyph-name="percent" unicode="%" horiz-adv-x="529" 
d="M465 618q34 -32 -21 -124q-22 -36 -67 -95t-80.5 -102t-102.5 -123q-45 -53 -69 -82t-58.5 -72t-51 -67.5t-17.5 -32.5q-1 -7 -5.5 -11t-10.5 -4h-2q-3 0 -6 1.5t-5 4t-3 5.5t-1 7q2 23 47.5 81.5t155.5 190.5q203 241 248 316q11 19 18 34t9 23.5t2 14.5t-1 8t-2 3
q-14 13 -76 -8.5t-129 -58.5q4 -45 -25 -90q-44 -71 -81 -65q-22 4 -28 30q-2 13 1 29t11 32.5t23.5 33.5t35.5 30q2 2 10.5 7t27 16t40 21.5t46.5 22.5t49.5 20.5t47 13t41 2.5t29.5 -12zM184 454q17 27 20 53l-12 -8q-27 -18 -41 -40t-16 -40q-1 -12 2 -14q3 -1 8 2
t16 15.5t23 31.5zM348 210q7 0 11.5 -5t4.5 -12q0 -29 -13.5 -65.5t-32.5 -65t-36 -37.5q-8 -5 -16 -5q-7 0 -13 4q-17 10 -16 44q1 23 14.5 48.5t34.5 37.5q19 10 40 5q5 19 5 35q0 6 5 11t12 5zM270 57q23 19 45 70q-1 1 -3 1q-5 0 -10 -3q-12 -7 -22 -25.5t-10 -32.5v-10
z" />
    <glyph glyph-name="ampersand" unicode="&#x26;" horiz-adv-x="457" 
d="M431 165q11 -19 -6 -49.5t-59 -66.5q-26 -22 -64 -44q21 -46 49 -82q5 -6 4.5 -14t-7.5 -13q-5 -4 -12 -4q-9 0 -15 7q-30 39 -53 89q-48 -23 -95.5 -36t-88.5 -11.5t-59 20.5q-51 56 97 200q51 50 91 97q-1 71 10 136q10 58 37 92.5t55 38.5q33 5 48 -25
q16 -33 -9.5 -99t-101.5 -157q3 -113 36 -203q30 18 53 37q44 38 54 64q-1 -1 -4 -1q-7 -3 -14 0.5t-10 11t0.5 14.5t11.5 10q38 13 52 -12zM261 387q-6 -37 -8 -80q27 36 45.5 68.5t24.5 52t8 35.5t-3 20q-2 4 -5 4h-2q-16 -3 -34 -29.5t-26 -70.5zM54 -13q16 -17 76 -6
t124 42q-30 82 -38 180q-31 -34 -67 -70q-28 -26 -48 -49.5t-30 -39t-15.5 -28.5t-4.5 -18.5t3 -10.5z" />
    <glyph glyph-name="quotesingle" unicode="'" horiz-adv-x="203" 
d="M134 547q19 -14 19 -39q0 -26 -21.5 -56t-50.5 -52q-5 -4 -12 -4q-9 0 -15 8q-5 6 -4 14t8 13q15 12 28.5 26t21 28t7.5 23q0 5 -4 8q-7 5 -8 13t3.5 14.5t12.5 7.5t15 -4z" />
    <glyph glyph-name="quotesingle" unicode="&#x2019;" horiz-adv-x="203" 
d="M134 547q19 -14 19 -39q0 -26 -21.5 -56t-50.5 -52q-5 -4 -12 -4q-9 0 -15 8q-5 6 -4 14t8 13q15 12 28.5 26t21 28t7.5 23q0 5 -4 8q-7 5 -8 13t3.5 14.5t12.5 7.5t15 -4z" />
    <glyph glyph-name="quotesingle" unicode="&#x2018;" horiz-adv-x="203" 
d="M134 547q19 -14 19 -39q0 -26 -21.5 -56t-50.5 -52q-5 -4 -12 -4q-9 0 -15 8q-5 6 -4 14t8 13q15 12 28.5 26t21 28t7.5 23q0 5 -4 8q-7 5 -8 13t3.5 14.5t12.5 7.5t15 -4z" />
    <glyph glyph-name="parenleft" unicode="(" horiz-adv-x="327" 
d="M409.5 597q6.5 -5 7.5 -13t-4 -14q-172 -224 -256 -413q-114 -257 -39 -399q4 -7 1.5 -14.5t-9.5 -11.5q-4 -2 -9 -2q-12 0 -17 10q-23 44 -30.5 96.5t0.5 108t24.5 113.5t45 118t58 115.5t66.5 111.5t68.5 101t66.5 89q5 6 12.5 7.5t14 -3.5z" />
    <glyph glyph-name="parenright" unicode=")" horiz-adv-x="357" 
d="M269 621q39 -115 37.5 -239.5t-45.5 -242.5q-47 -129 -137 -230.5t-217 -167.5q-4 -2 -9 -2q-11 0 -17 10q-3 7 -1 14.5t9 11.5q120 63 205.5 159t130.5 219q41 111 43 228.5t-35 226.5q-3 8 0.5 15t11 9.5t14.5 -1t10 -10.5z" />
    <glyph glyph-name="asterisk" unicode="*" horiz-adv-x="323" 
d="M273 489q2 -8 -2.5 -14.5t-11.5 -8.5q-11 -3 -60 -35q8 -14 17 -29q17 -29 19 -31q4 -7 3.5 -14.5t-6.5 -12.5q-6 -4 -13 -4q-9 0 -14 7q-3 2 -22 35q-1 2 -6 10q-19 -54 -21 -65q-4 -15 -19 -15h-4q-8 2 -12.5 8.5t-2.5 14.5q2 11 17 53q-1 -1 -10 -7l-45 -30
q-5 -3 -11 -3q-10 0 -16 9q-4 6 -2.5 14t8.5 12q9 6 44 30q26 17 44 30q-27 43 -33 49t-6 14t5.5 13.5t13.5 6t14 -5.5q7 -6 27 -39q21 57 28 72q3 7 10 10t14.5 0t10.5 -10.5t0 -14.5q-4 -11 -20 -54q27 17 39 19q5 2 10 0.5t8.5 -5.5t4.5 -9z" />
    <glyph glyph-name="plus" unicode="+" horiz-adv-x="345" 
d="M275 264q8 0 13.5 -5.5t5.5 -13.5t-5.5 -13.5t-13.5 -5.5q-27 0 -86 -3q-8 -19 -18 -41q-12 -30 -18 -43q-8 -20 -12 -24.5t-13 -4.5q-8 0 -13.5 5.5t-5.5 13.5q0 5 2 9t25 59q6 14 10 24q-16 -1 -34 -2q-29 -1 -42 -2h-1q-7 0 -13 5.5t-6 12.5q0 8 5 14t13 7q9 0 42 2
q35 2 53 2q31 74 34 79q4 7 12 9t14.5 -2t8.5 -11.5t-1 -14.5q-3 -6 -25 -58q45 2 69 2z" />
    <glyph glyph-name="comma" unicode="," horiz-adv-x="166" 
d="M96 42q19 -14 19 -39q0 -26 -21.5 -56t-50.5 -52q-5 -4 -12 -4q-10 0 -15 8q-5 6 -4 14t8 13q23 18 40 40.5t17 36.5q0 5 -4 8q-7 5 -8 12.5t3.5 14t12.5 8t15 -3.5z" />
    <glyph glyph-name="hyphen" unicode="-" horiz-adv-x="349" 
d="M297 187q3 -7 0.5 -14.5t-9.5 -11.5q-5 -2 -87 -2q-119 1 -130 -1h-2q-7 0 -12.5 5t-6.5 12q0 5 2 10t6 8t9 4q13 1 135 0h75q14 3 20 -10z" />
    <glyph glyph-name="period" unicode="." horiz-adv-x="134" 
d="M58 45q23 7 26 -10q2 -18 -17 -27q-10 -5 -23 -5q-21 2 -10 22q9 15 24 20z" />
    <glyph glyph-name="slash" unicode="/" horiz-adv-x="525" 
d="M637 617q6 -5 6.5 -13t-4.5 -14q-157 -191 -345 -430q-133 -169 -210 -262q-6 -7 -15 -7q-7 0 -12 4q-6 6 -7 13.5t4 14.5q77 92 209 260q189 240 347 431q5 6 13 7t14 -4z" />
    <glyph glyph-name="zero" unicode="0" horiz-adv-x="306" 
d="M212 513q49 -31 70.5 -91.5t11.5 -140.5q-9 -65 -36.5 -128.5t-72.5 -113t-97 -64.5q-11 -3 -21 -3q-22 0 -37 15q-51 53 16 268q17 54 41.5 115t62 124t66.5 68q8 2 15 -3t9 -13q1 -4 0 -8t-3 -7.5t-5.5 -5.5t-7.5 -3q-5 -1 -12 -9zM253 286q9 69 -8 119.5t-57 74.5
q-31 -49 -64.5 -130.5t-54.5 -166.5q-13 -49 -17 -86.5t-1.5 -56t9.5 -24.5q5 -5 17 -1q60 17 111.5 96.5t64.5 174.5z" />
    <glyph glyph-name="one" unicode="1" horiz-adv-x="192" 
d="M170 563q14 -6 18.5 -22.5t-2 -63t-23 -116.5t-49.5 -195q-13 -52 -20.5 -79.5t-16.5 -65t-14 -62.5q-3 -16 -20 -16q-2 0 -4 1q-9 1 -13.5 8.5t-2.5 15.5q11 54 51 208q72 277 75 336q-23 -28 -63 -96q-4 -8 -12.5 -10t-16 2.5t-9.5 12.5t2 16q50 85 75 109.5t45 16.5z
" />
    <glyph glyph-name="two" unicode="2" horiz-adv-x="253" 
d="M133 209q-27 -49 -40.5 -74.5t-29 -61t-19.5 -59.5q-1 -5 -1 -9v-4q16 -4 68 29.5t78 68.5q5 7 13.5 8.5t15.5 -3.5t8 -13.5t-4 -15.5q-26 -37 -82.5 -76t-94.5 -39q-11 0 -19 3q-31 14 -23 58q5 28 21 66t30.5 64.5t42.5 77.5q31 55 47 86t34.5 75.5t23.5 77.5
q3 20 -3 23q-7 5 -31 -3t-50 -27q-7 -5 -15.5 -3.5t-13.5 8t-3.5 15t8.5 13.5q5 4 12 9t23 13t30.5 13t31.5 5t30 -7q29 -18 22 -66q-6 -35 -25 -83t-36 -79.5t-49 -89.5z" />
    <glyph glyph-name="three" unicode="3" horiz-adv-x="288" 
d="M256 232q6 -38 -6.5 -78t-42.5 -78.5t-85.5 -70.5t-128.5 -50q-3 -1 -5 -1q-16 0 -20 16q-2 8 2.5 15.5t12.5 9.5q64 16 112.5 43t75.5 58.5t38 64.5t6 64q-7 44 -41.5 68t-85.5 20q-15 -1 -20.5 13t6.5 24q38 29 65 54.5t39 40.5t18 26.5t6.5 15t0.5 4.5q-8 7 -37 -3
q-21 -7 -37.5 -21.5t-18.5 -32.5q-2 -8 -8.5 -13.5t-15 -4t-13.5 8t-4 15.5q5 36 38 62t71 31q49 6 63 -26q21 -52 -101 -156q47 -10 78 -41.5t38 -77.5z" />
    <glyph glyph-name="four" unicode="4" horiz-adv-x="286" 
d="M267 347q13 -13 8.5 -30t-37.5 -95q-78 -186 -79 -229q0 -6 -3 -10.5t-7.5 -7t-9.5 -2.5h-1q-8 0 -14 6t-6 15q1 51 82 244q4 9 6 13q-14 -14 -26 -25q-96 -90 -133 -80q-28 8 -24 47q6 68 63.5 182t108.5 157q7 6 15.5 5t14 -7.5t5 -15t-7.5 -13.5q-45 -38 -99 -145
t-59 -167v-1q13 6 37.5 24.5t61.5 53t70 72.5q1 1 1 2q17 17 33 7z" />
    <glyph glyph-name="five" unicode="5" horiz-adv-x="299" 
d="M339 495q8 0 14 -6t6 -14.5t-6 -14.5t-14 -6q-43 0 -122 22q-38 11 -58 15q-13 -31 -32 -103t-24 -110q91 19 124 -20q31 -36 1 -99q-31 -68 -107.5 -123t-153.5 -55q-8 0 -14 6t-6 14.5t6 14.5t14 6q65 0 131 48t93 106q18 40 5 56q-21 24 -107 0q-15 -4 -24 8
q-4 6 -5 13t4 40t19 90q30 117 48 143q8 11 21 9q27 -5 76 -19q73 -21 111 -21z" />
    <glyph glyph-name="six" unicode="6" horiz-adv-x="314" 
d="M259 201q28 -18 31.5 -57t-26.5 -99q-7 -12 -16.5 -24.5t-31.5 -28.5t-45 -19q-5 -1 -10 -1q-37 0 -68 33q-79 83 -60 234q7 59 29.5 119t54.5 105q31 43 63.5 60t60.5 4q8 -3 11 -11t-1 -16t-12 -11t-15 1q-13 6 -33 -8t-41 -43q-28 -41 -49 -96t-27 -109
q-13 -99 23 -164q13 52 40 88q20 27 43.5 41t43 12.5t35.5 -10.5zM228 65q11 19 16.5 36t5.5 30t-3 22t-10 14q-12 7 -30.5 -1t-36.5 -32q-30 -41 -40 -107q17 -15 36 -13q18 2 34.5 17t27.5 34z" />
    <glyph glyph-name="seven" unicode="7" horiz-adv-x="288" 
d="M306.5 304q1.5 -8 -3.5 -15t-14 -8q-21 -4 -87 -22q-6 -19 -15 -45q-21 -61 -32 -93.5t-21.5 -74t-10.5 -61.5q0 -9 -6 -15t-14.5 -6t-14.5 6t-6 15q0 23 10.5 66t21.5 77t34 99l3 9l3 9q-66 -20 -77 -26q-5 -3 -10 -3q-12 0 -18 10q-4 8 -2 16t10 13q18 10 113 37
q30 89 41 140q9 38 10 62.5t-1.5 29.5t-4.5 7q-2 1 -5 1.5t-15 -3t-28 -12t-45.5 -29.5t-65.5 -52q-6 -6 -14.5 -5t-14 7.5t-5 15t7.5 13.5q82 70 131.5 93.5t76.5 4.5q21 -14 23.5 -50t-8.5 -84.5t-36 -124.5q50 13 66 15q8 1 15 -4t8.5 -13z" />
    <glyph glyph-name="eight" unicode="8" horiz-adv-x="287" 
d="M310 446q-5 -33 -49.5 -82.5t-100.5 -93.5q9 -19 29 -56q47 -89 51 -119q6 -48 -13 -82.5t-59 -47.5q-20 -7 -41 -7q-33 0 -62 15.5t-44 42.5q-8 16 -10.5 34.5t2 46t28 62.5t64.5 73q-14 -5 -23 8q-4 8 -2.5 16t8.5 13q10 6 20 13q-30 67 -35 115q-5 37 11.5 70t52.5 54
q35 22 75.5 24.5t67.5 -15.5q40 -28 30 -84zM199 89q-3 23 -47 106l-8 16q-58 -51 -81 -97t-6 -78q13 -22 42 -31.5t56 -0.5q53 17 44 85zM142 308q49 40 86.5 82t41.5 63q5 30 -13 43q-13 9 -35 9q-33 0 -64 -19q-51 -31 -45 -84q5 -39 29 -94z" />
    <glyph glyph-name="nine" unicode="9" horiz-adv-x="219" 
d="M255.5 481.5q15.5 -9.5 7.5 -25.5q-35 -75 -90.5 -239.5t-72.5 -233.5q-4 -16 -20 -16q-2 0 -5 1q-8 2 -12.5 9t-2.5 15q12 50 50.5 168t74.5 213q-77 -62 -131 -37q-22 10 -32 32.5t-5 49.5q9 42 54 74.5t124 35.5q6 0 11 -2.5t8 -7t3 -10.5q0 -8 -6 -14.5t-14 -6.5
q-61 -2 -97 -25t-42 -53q-6 -27 13 -35q7 -2 16.5 -3t24.5 5.5t32 17.5t39 32.5t45 50.5q12 14 27.5 4.5z" />
    <glyph glyph-name="colon" unicode=":" horiz-adv-x="228" 
d="M152 229q23 7 26 -10q2 -18 -17 -27q-10 -5 -23 -5q-21 2 -10 22q10 14 24 20zM77 58q23 7 25.5 -10t-17.5 -27q-9 -5 -22 -4q-21 1 -10 21q9 16 24 20z" />
    <glyph glyph-name="semicolon" unicode=";" horiz-adv-x="254" 
d="M133 42q20 -14 20 -39q0 -26 -21 -56t-51 -52q-5 -4 -12 -4q-9 0 -15 8q-5 6 -4 14t8 13q23 18 40 40.5t16 36.5q0 5 -4 8q-6 5 -7 12.5t3.5 14t12.5 8t14 -3.5zM179 229q23 7 25 -10q3 -17 -17 -27q-10 -5 -23 -5q-20 2 -9 22q9 14 24 20z" />
    <glyph glyph-name="less" unicode="&#x3c;" horiz-adv-x="357" 
d="M303.5 381.5q4.5 -6.5 3.5 -14.5t-8 -13q-102 -75 -182 -121q-28 -16 -29 -28q0 -4 2.5 -8.5t7.5 -9.5t10 -9.5t13.5 -10t15 -10t16.5 -10.5t16 -9.5t16 -9.5q39 -22 57 -34q6 -4 8 -12t-3 -15q-5 -8 -16 -8q-6 0 -10 3q-17 11 -55 33q-31 18 -46 27.5t-34.5 24.5
t-27.5 29t-8 29q0 35 48 62q78 44 179 118q6 5 14 4t12.5 -7.5z" />
    <glyph glyph-name="equal" unicode="=" horiz-adv-x="437" 
d="M368 293q8 0 13.5 -5.5t5.5 -13.5t-5.5 -13.5t-13.5 -5.5h-15q-214 1 -234 -1h-1q-8 0 -13.5 5t-6.5 12q0 8 5 14t13 7q21 2 237 1h15zM350 151q8 1 14 -4.5t6 -13.5q0 -4 -1.5 -7.5t-4 -6.5t-6 -4.5t-7.5 -1.5h-77q-187 0 -203 -1h-2q-7 0 -12.5 5t-6.5 13t4.5 14
t13.5 6q18 2 206 1h76z" />
    <glyph glyph-name="greater" unicode="&#x3e;" horiz-adv-x="383" 
d="M214 351q25 -14 37 -21.5t30.5 -19.5t27.5 -21t16 -20.5t8 -22.5q1 -24 -24 -40q-136 -91 -231 -140q-4 -2 -9 -2q-11 0 -17 10q-3 7 -1 14.5t9 11.5q93 49 227 138q7 4 7 7q-1 17 -99 72q-58 33 -76 48q-6 5 -7 13t4.5 14.5t13 7t14.5 -4.5q15 -13 70 -44z" />
    <glyph glyph-name="question" unicode="?" horiz-adv-x="314" 
d="M239 520q43 -25 10 -132q-22 -74 -109 -253q-67 -139 -68 -161q-1 -7 -6.5 -12t-12.5 -5h-2q-8 0 -13 6t-5 14q2 19 18 56.5t55 118.5q85 176 107 247q8 29 10.5 50t0.5 28.5t-4 9.5q-2 -2 -3.5 0t-11 -2.5t-20.5 -11t-32 -24.5t-45 -43q-6 -6 -14 -6t-13.5 5.5
t-5.5 13.5t5 14q112 115 159 87zM28 -95q21 7 27 -10q6 -18 -13 -26q-8 -3 -18 -3q-12 1 -14.5 9.5t3.5 18t15 11.5z" />
    <glyph glyph-name="at" unicode="@" horiz-adv-x="604" 
d="M531 351q37 -64 16 -151q-22 -87 -65.5 -143.5t-83.5 -48.5q-58 13 -45 146q-50 -53 -88 -86q-33 -29 -52 -19q-15 9 -11 35q4 27 26.5 71t59 85t69.5 48q41 8 66 -33q8 -13 -5 -21t-21 5q-17 27 -43 16q-37 -16 -76 -77.5t-46 -95.5q6 3 12 9q39 34 99 97q15 16 21 22
q8 8 18 2.5t8 -16.5q-6 -33 -7.5 -61t0 -45t5 -28.5t8 -16.5t8.5 -6q23 -5 58.5 43.5t54.5 125.5q8 29 5.5 59.5t-12.5 56.5t-34.5 46.5t-59.5 29.5q-21 3 -44.5 4.5t-50 -7t-53 -21.5t-52.5 -38t-49 -56t-43.5 -76.5t-33.5 -99.5q-29 -112 31 -153q34 -23 88 -17.5t98 36.5
q13 9 21.5 -3.5t-3.5 -21.5q-62 -44 -135 -44q-51 0 -86 25q-78 53 -44 186q15 61 39.5 113t53.5 88t63 63.5t68.5 40t70.5 17t69 -5.5q72 -18 107 -79z" />
    <glyph glyph-name="A" unicode="A" horiz-adv-x="1098" 
d="M1040 205q7 -5 8 -13t-3 -14q-6 -8 -16 -8q-4 0 -8 2q-20 4 -198 10q-49 -205 -79 -347q-61 -283 -61 -363q4 7 9 15q4 7 12 9t14.5 -2t8.5 -11.5t-2 -14.5q-29 -49 -50 -49q-5 0 -10 2q-12 5 -16.5 21.5t-2 63t17.5 128.5t44.5 217.5t75.5 331.5q-68 2 -203 5
q-20 1 -45 1q-151 -287 -234 -401q-22 -29 -44 -45t-41 -18.5t-32 0.5t-25 10q-52 30 -82.5 121.5t-27.5 203t39 194.5q45 102 131.5 137t203.5 -2q8 -2 11.5 -9t1 -14.5t-9.5 -11.5t-15 -1q-39 12 -76 15t-77.5 -5.5t-75.5 -40t-59 -84.5q-18 -41 -27 -91t-9 -98t7 -94.5
t19.5 -84t29 -64.5t35.5 -38q42 -24 92 43q80 108 222 379q-260 7 -284 12q-8 2 -12.5 8.5t-3 14.5t8.5 12t14 3q22 -5 297 -12q44 86 133 260q58 116 95 188t72.5 137t56.5 98.5t40 58t31.5 31t24.5 2.5q16 -6 20.5 -27t0.5 -58q-6 -65 -35 -194q-12 -57 -61 -258
q-38 -158 -59 -246q195 -6 208 -15zM582 227q131 -4 211 -6q27 116 60 254q49 200 62 257q39 177 35 227q-16 -16 -44.5 -62.5t-72 -128.5t-72.5 -138.5t-81 -158.5q-82 -162 -124 -244h12.5h13.5z" />
    <glyph glyph-name="A" unicode="&#xc5;" horiz-adv-x="1098" 
d="M1040 205q7 -5 8 -13t-3 -14q-6 -8 -16 -8q-4 0 -8 2q-20 4 -198 10q-49 -205 -79 -347q-61 -283 -61 -363q4 7 9 15q4 7 12 9t14.5 -2t8.5 -11.5t-2 -14.5q-29 -49 -50 -49q-5 0 -10 2q-12 5 -16.5 21.5t-2 63t17.5 128.5t44.5 217.5t75.5 331.5q-68 2 -203 5
q-20 1 -45 1q-151 -287 -234 -401q-22 -29 -44 -45t-41 -18.5t-32 0.5t-25 10q-52 30 -82.5 121.5t-27.5 203t39 194.5q45 102 131.5 137t203.5 -2q8 -2 11.5 -9t1 -14.5t-9.5 -11.5t-15 -1q-39 12 -76 15t-77.5 -5.5t-75.5 -40t-59 -84.5q-18 -41 -27 -91t-9 -98t7 -94.5
t19.5 -84t29 -64.5t35.5 -38q42 -24 92 43q80 108 222 379q-260 7 -284 12q-8 2 -12.5 8.5t-3 14.5t8.5 12t14 3q22 -5 297 -12q44 86 133 260q58 116 95 188t72.5 137t56.5 98.5t40 58t31.5 31t24.5 2.5q16 -6 20.5 -27t0.5 -58q-6 -65 -35 -194q-12 -57 -61 -258
q-38 -158 -59 -246q195 -6 208 -15zM582 227q131 -4 211 -6q27 116 60 254q49 200 62 257q39 177 35 227q-16 -16 -44.5 -62.5t-72 -128.5t-72.5 -138.5t-81 -158.5q-82 -162 -124 -244h12.5h13.5z" />
    <glyph glyph-name="A" unicode="&#xc3;" horiz-adv-x="1098" 
d="M1040 205q7 -5 8 -13t-3 -14q-6 -8 -16 -8q-4 0 -8 2q-20 4 -198 10q-49 -205 -79 -347q-61 -283 -61 -363q4 7 9 15q4 7 12 9t14.5 -2t8.5 -11.5t-2 -14.5q-29 -49 -50 -49q-5 0 -10 2q-12 5 -16.5 21.5t-2 63t17.5 128.5t44.5 217.5t75.5 331.5q-68 2 -203 5
q-20 1 -45 1q-151 -287 -234 -401q-22 -29 -44 -45t-41 -18.5t-32 0.5t-25 10q-52 30 -82.5 121.5t-27.5 203t39 194.5q45 102 131.5 137t203.5 -2q8 -2 11.5 -9t1 -14.5t-9.5 -11.5t-15 -1q-39 12 -76 15t-77.5 -5.5t-75.5 -40t-59 -84.5q-18 -41 -27 -91t-9 -98t7 -94.5
t19.5 -84t29 -64.5t35.5 -38q42 -24 92 43q80 108 222 379q-260 7 -284 12q-8 2 -12.5 8.5t-3 14.5t8.5 12t14 3q22 -5 297 -12q44 86 133 260q58 116 95 188t72.5 137t56.5 98.5t40 58t31.5 31t24.5 2.5q16 -6 20.5 -27t0.5 -58q-6 -65 -35 -194q-12 -57 -61 -258
q-38 -158 -59 -246q195 -6 208 -15zM582 227q131 -4 211 -6q27 116 60 254q49 200 62 257q39 177 35 227q-16 -16 -44.5 -62.5t-72 -128.5t-72.5 -138.5t-81 -158.5q-82 -162 -124 -244h12.5h13.5z" />
    <glyph glyph-name="A" unicode="&#xc2;" horiz-adv-x="1098" 
d="M1040 205q7 -5 8 -13t-3 -14q-6 -8 -16 -8q-4 0 -8 2q-20 4 -198 10q-49 -205 -79 -347q-61 -283 -61 -363q4 7 9 15q4 7 12 9t14.5 -2t8.5 -11.5t-2 -14.5q-29 -49 -50 -49q-5 0 -10 2q-12 5 -16.5 21.5t-2 63t17.5 128.5t44.5 217.5t75.5 331.5q-68 2 -203 5
q-20 1 -45 1q-151 -287 -234 -401q-22 -29 -44 -45t-41 -18.5t-32 0.5t-25 10q-52 30 -82.5 121.5t-27.5 203t39 194.5q45 102 131.5 137t203.5 -2q8 -2 11.5 -9t1 -14.5t-9.5 -11.5t-15 -1q-39 12 -76 15t-77.5 -5.5t-75.5 -40t-59 -84.5q-18 -41 -27 -91t-9 -98t7 -94.5
t19.5 -84t29 -64.5t35.5 -38q42 -24 92 43q80 108 222 379q-260 7 -284 12q-8 2 -12.5 8.5t-3 14.5t8.5 12t14 3q22 -5 297 -12q44 86 133 260q58 116 95 188t72.5 137t56.5 98.5t40 58t31.5 31t24.5 2.5q16 -6 20.5 -27t0.5 -58q-6 -65 -35 -194q-12 -57 -61 -258
q-38 -158 -59 -246q195 -6 208 -15zM582 227q131 -4 211 -6q27 116 60 254q49 200 62 257q39 177 35 227q-16 -16 -44.5 -62.5t-72 -128.5t-72.5 -138.5t-81 -158.5q-82 -162 -124 -244h12.5h13.5z" />
    <glyph glyph-name="A" unicode="&#xc1;" horiz-adv-x="1098" 
d="M1040 205q7 -5 8 -13t-3 -14q-6 -8 -16 -8q-4 0 -8 2q-20 4 -198 10q-49 -205 -79 -347q-61 -283 -61 -363q4 7 9 15q4 7 12 9t14.5 -2t8.5 -11.5t-2 -14.5q-29 -49 -50 -49q-5 0 -10 2q-12 5 -16.5 21.5t-2 63t17.5 128.5t44.5 217.5t75.5 331.5q-68 2 -203 5
q-20 1 -45 1q-151 -287 -234 -401q-22 -29 -44 -45t-41 -18.5t-32 0.5t-25 10q-52 30 -82.5 121.5t-27.5 203t39 194.5q45 102 131.5 137t203.5 -2q8 -2 11.5 -9t1 -14.5t-9.5 -11.5t-15 -1q-39 12 -76 15t-77.5 -5.5t-75.5 -40t-59 -84.5q-18 -41 -27 -91t-9 -98t7 -94.5
t19.5 -84t29 -64.5t35.5 -38q42 -24 92 43q80 108 222 379q-260 7 -284 12q-8 2 -12.5 8.5t-3 14.5t8.5 12t14 3q22 -5 297 -12q44 86 133 260q58 116 95 188t72.5 137t56.5 98.5t40 58t31.5 31t24.5 2.5q16 -6 20.5 -27t0.5 -58q-6 -65 -35 -194q-12 -57 -61 -258
q-38 -158 -59 -246q195 -6 208 -15zM582 227q131 -4 211 -6q27 116 60 254q49 200 62 257q39 177 35 227q-16 -16 -44.5 -62.5t-72 -128.5t-72.5 -138.5t-81 -158.5q-82 -162 -124 -244h12.5h13.5z" />
    <glyph glyph-name="A" unicode="&#xc0;" horiz-adv-x="1098" 
d="M1040 205q7 -5 8 -13t-3 -14q-6 -8 -16 -8q-4 0 -8 2q-20 4 -198 10q-49 -205 -79 -347q-61 -283 -61 -363q4 7 9 15q4 7 12 9t14.5 -2t8.5 -11.5t-2 -14.5q-29 -49 -50 -49q-5 0 -10 2q-12 5 -16.5 21.5t-2 63t17.5 128.5t44.5 217.5t75.5 331.5q-68 2 -203 5
q-20 1 -45 1q-151 -287 -234 -401q-22 -29 -44 -45t-41 -18.5t-32 0.5t-25 10q-52 30 -82.5 121.5t-27.5 203t39 194.5q45 102 131.5 137t203.5 -2q8 -2 11.5 -9t1 -14.5t-9.5 -11.5t-15 -1q-39 12 -76 15t-77.5 -5.5t-75.5 -40t-59 -84.5q-18 -41 -27 -91t-9 -98t7 -94.5
t19.5 -84t29 -64.5t35.5 -38q42 -24 92 43q80 108 222 379q-260 7 -284 12q-8 2 -12.5 8.5t-3 14.5t8.5 12t14 3q22 -5 297 -12q44 86 133 260q58 116 95 188t72.5 137t56.5 98.5t40 58t31.5 31t24.5 2.5q16 -6 20.5 -27t0.5 -58q-6 -65 -35 -194q-12 -57 -61 -258
q-38 -158 -59 -246q195 -6 208 -15zM582 227q131 -4 211 -6q27 116 60 254q49 200 62 257q39 177 35 227q-16 -16 -44.5 -62.5t-72 -128.5t-72.5 -138.5t-81 -158.5q-82 -162 -124 -244h12.5h13.5z" />
    <glyph glyph-name="B" unicode="B" horiz-adv-x="979" 
d="M826 409q58 -73 63.5 -180.5t-43.5 -219.5q-73 -169 -231 -272.5t-365 -118.5h-1q-8 0 -13.5 5t-5.5 13q-1 8 4.5 14t12.5 6q196 14 345.5 111.5t218.5 256.5q45 103 40.5 200t-55.5 161q-56 69 -154 82q-85 -88 -203 -164t-182 -84q-114 -569 -128 -714l4 10
q3 8 10.5 11t15 0t10.5 -10.5t0 -14.5q-17 -42 -28.5 -59.5t-24.5 -17.5q-4 0 -8 2q-11 3 -15 14.5t-2.5 54t15.5 127.5t41.5 233t72.5 373q-14 13 -9 35q10 36 30 69q18 89 39 195q63 307 82 409q-47 -12 -88 -33q-73 -35 -118.5 -90.5t-60 -124t2.5 -149.5
q2 -8 -2.5 -14.5t-12 -8.5t-14.5 2.5t-8 12.5q-30 134 21.5 240.5t174.5 166.5q53 26 113 39q2 12 4 19q0 5 3.5 9t8.5 5.5t10 0.5q8 -1 12.5 -7.5t2.5 -14.5v-2.5v-1.5q103 15 195.5 -10t140.5 -84q29 -35 38.5 -77t4 -80t-22.5 -79.5t-35.5 -71.5t-40.5 -59
q-8 -12 -19 -24q97 -20 154 -91zM265 259q52 15 150 75t176 135q-39 0 -82 -9q-69 -14 -132.5 -50t-99.5 -92q-7 -36 -12 -59zM627 507q19 20 34 40q73 99 88 181t-31 138q-44 53 -131 74t-184 4q-19 -103 -85 -424q-15 -73 -25 -124q82 77 209 102q66 13 125 9z" />
    <glyph glyph-name="C" unicode="C" horiz-adv-x="772" 
d="M812.5 233.5q7.5 -3.5 10 -11t-0.5 -14.5q-100 -214 -199 -364t-190.5 -227t-169.5 -77q-23 0 -45 7q-71 22 -114.5 111.5t-51.5 226t19 310.5q29 182 99 376q82 228 178 343q78 93 134 66q39 -19 52.5 -90.5t4.5 -179.5t-27 -216.5t-46 -234.5q-2 -7 -9 -11.5
t-14.5 -2.5t-12 8.5t-2.5 14.5q30 134 48 245.5t23.5 186.5t2.5 129t-12.5 81.5t-24.5 34.5q-14 7 -37 -8t-50 -47q-89 -107 -164 -311.5t-105 -389.5q-40 -246 -3 -417q17 -78 49 -126.5t75 -61.5q95 -30 229 110q158 165 328 530q3 7 10.5 10t15 -0.5z" />
    <glyph glyph-name="C" unicode="&#xc7;" horiz-adv-x="772" 
d="M812.5 233.5q7.5 -3.5 10 -11t-0.5 -14.5q-100 -214 -199 -364t-190.5 -227t-169.5 -77q-23 0 -45 7q-71 22 -114.5 111.5t-51.5 226t19 310.5q29 182 99 376q82 228 178 343q78 93 134 66q39 -19 52.5 -90.5t4.5 -179.5t-27 -216.5t-46 -234.5q-2 -7 -9 -11.5
t-14.5 -2.5t-12 8.5t-2.5 14.5q30 134 48 245.5t23.5 186.5t2.5 129t-12.5 81.5t-24.5 34.5q-14 7 -37 -8t-50 -47q-89 -107 -164 -311.5t-105 -389.5q-40 -246 -3 -417q17 -78 49 -126.5t75 -61.5q95 -30 229 110q158 165 328 530q3 7 10.5 10t15 -0.5z" />
    <glyph glyph-name="D" unicode="D" horiz-adv-x="851" 
d="M774 962q22 -13 40.5 -31t36.5 -47.5t27 -67t13 -90t-7 -115.5q-28 -190 -105.5 -371t-195.5 -331q-100 -126 -205.5 -201.5t-182.5 -75.5h-2q-13 0 -25 3q-14 -84 -18 -130l4 10q3 8 10.5 11t15 0t10.5 -10.5t0 -14.5q-17 -42 -28.5 -59.5t-25.5 -17.5q-3 0 -7 2
q-11 3 -15.5 15.5t-1 62.5t19.5 146q-41 28 -48 92q-1 5 1 10t6.5 8t9.5 4q4 0 7.5 -1t6.5 -3.5t5 -5.5t2 -7q4 -33 17 -51q40 232 161 824q52 257 71 353q-16 -10 -30 -20q-47 -34 -88 -75.5t-77.5 -95t-57.5 -112t-28 -126t10 -137.5q1 -8 -3 -14.5t-12 -8t-14.5 2.5
t-8.5 12q-18 75 -10.5 147.5t30 135.5t61 120t82 101.5t93.5 80.5q31 22 62 40q8 42 14 72q1 8 7.5 12.5t14.5 3t12.5 -8t3.5 -14.5q-4 -18 -8 -43q98 47 190.5 51.5t159.5 -35.5zM846 616q16 117 -7 196.5t-85 117.5q-63 37 -153 28.5t-186 -59.5q-20 -102 -78 -387
q-125 -614 -163 -839q9 -2 19 -3h2q62 0 159.5 67.5t197.5 195.5q40 50 78 110t83 147t80.5 198t52.5 228z" />
    <glyph glyph-name="E" unicode="E" horiz-adv-x="848" 
d="M1071 965q8 0 13.5 -5.5t5.5 -13.5q0 -5 -2.5 -9.5t-7 -7t-9.5 -2.5q-115 -2 -275 -25.5t-309 -60.5q-20 -84 -76 -296q-44 -168 -65 -254q140 37 271.5 63.5t167.5 24.5q8 -1 13 -6.5t4.5 -13.5t-6 -13.5t-13.5 -5.5q-20 2 -76 -7.5t-134.5 -26.5t-164.5 -38
q-38 -10 -73 -19q-96 -388 -99 -532q-1 -69 25 -80q15 -7 39.5 1.5t57.5 31.5t62 45.5t70 60.5t62.5 58.5t57.5 55.5l31 31l17 16q39 38 54 51q10 9 15 13t12.5 8.5t13.5 4t11 -5.5q7 -5 8 -11.5t-5.5 -18.5t-13.5 -22t-25 -34q-5 -7 -13 -8t-14 4q-2 1 -4 3l-12 -12
l-17 -16q-10 -10 -31 -30q-52 -51 -88 -85t-79.5 -71.5t-75.5 -59.5t-64 -36.5t-56 -14.5q-16 0 -28 6q-50 21 -48 115q2 147 94 520q-202 -57 -228 -82q-5 -5 -13 -5t-13.5 5.5t-5.5 13.5t6 14q35 34 265 97q23 92 71 275q51 194 71 275q-92 -24 -161.5 -50t-116.5 -55
t-55 -56q-8 -25 33 -53q6 -5 7.5 -12.5t-2.5 -14.5q-6 -8 -16 -8q-6 0 -11 3q-64 44 -48 96q31 103 380 193q6 25 10 43q1 8 8 12t14.5 2.5t12 -8t2.5 -14.5l-5 -25q147 36 304 58.5t270 23.5z" />
    <glyph glyph-name="E" unicode="&#xcb;" horiz-adv-x="848" 
d="M1071 965q8 0 13.5 -5.5t5.5 -13.5q0 -5 -2.5 -9.5t-7 -7t-9.5 -2.5q-115 -2 -275 -25.5t-309 -60.5q-20 -84 -76 -296q-44 -168 -65 -254q140 37 271.5 63.5t167.5 24.5q8 -1 13 -6.5t4.5 -13.5t-6 -13.5t-13.5 -5.5q-20 2 -76 -7.5t-134.5 -26.5t-164.5 -38
q-38 -10 -73 -19q-96 -388 -99 -532q-1 -69 25 -80q15 -7 39.5 1.5t57.5 31.5t62 45.5t70 60.5t62.5 58.5t57.5 55.5l31 31l17 16q39 38 54 51q10 9 15 13t12.5 8.5t13.5 4t11 -5.5q7 -5 8 -11.5t-5.5 -18.5t-13.5 -22t-25 -34q-5 -7 -13 -8t-14 4q-2 1 -4 3l-12 -12
l-17 -16q-10 -10 -31 -30q-52 -51 -88 -85t-79.5 -71.5t-75.5 -59.5t-64 -36.5t-56 -14.5q-16 0 -28 6q-50 21 -48 115q2 147 94 520q-202 -57 -228 -82q-5 -5 -13 -5t-13.5 5.5t-5.5 13.5t6 14q35 34 265 97q23 92 71 275q51 194 71 275q-92 -24 -161.5 -50t-116.5 -55
t-55 -56q-8 -25 33 -53q6 -5 7.5 -12.5t-2.5 -14.5q-6 -8 -16 -8q-6 0 -11 3q-64 44 -48 96q31 103 380 193q6 25 10 43q1 8 8 12t14.5 2.5t12 -8t2.5 -14.5l-5 -25q147 36 304 58.5t270 23.5z" />
    <glyph glyph-name="E" unicode="&#xca;" horiz-adv-x="848" 
d="M1071 965q8 0 13.5 -5.5t5.5 -13.5q0 -5 -2.5 -9.5t-7 -7t-9.5 -2.5q-115 -2 -275 -25.5t-309 -60.5q-20 -84 -76 -296q-44 -168 -65 -254q140 37 271.5 63.5t167.5 24.5q8 -1 13 -6.5t4.5 -13.5t-6 -13.5t-13.5 -5.5q-20 2 -76 -7.5t-134.5 -26.5t-164.5 -38
q-38 -10 -73 -19q-96 -388 -99 -532q-1 -69 25 -80q15 -7 39.5 1.5t57.5 31.5t62 45.5t70 60.5t62.5 58.5t57.5 55.5l31 31l17 16q39 38 54 51q10 9 15 13t12.5 8.5t13.5 4t11 -5.5q7 -5 8 -11.5t-5.5 -18.5t-13.5 -22t-25 -34q-5 -7 -13 -8t-14 4q-2 1 -4 3l-12 -12
l-17 -16q-10 -10 -31 -30q-52 -51 -88 -85t-79.5 -71.5t-75.5 -59.5t-64 -36.5t-56 -14.5q-16 0 -28 6q-50 21 -48 115q2 147 94 520q-202 -57 -228 -82q-5 -5 -13 -5t-13.5 5.5t-5.5 13.5t6 14q35 34 265 97q23 92 71 275q51 194 71 275q-92 -24 -161.5 -50t-116.5 -55
t-55 -56q-8 -25 33 -53q6 -5 7.5 -12.5t-2.5 -14.5q-6 -8 -16 -8q-6 0 -11 3q-64 44 -48 96q31 103 380 193q6 25 10 43q1 8 8 12t14.5 2.5t12 -8t2.5 -14.5l-5 -25q147 36 304 58.5t270 23.5z" />
    <glyph glyph-name="E" unicode="&#xc9;" horiz-adv-x="848" 
d="M1071 965q8 0 13.5 -5.5t5.5 -13.5q0 -5 -2.5 -9.5t-7 -7t-9.5 -2.5q-115 -2 -275 -25.5t-309 -60.5q-20 -84 -76 -296q-44 -168 -65 -254q140 37 271.5 63.5t167.5 24.5q8 -1 13 -6.5t4.5 -13.5t-6 -13.5t-13.5 -5.5q-20 2 -76 -7.5t-134.5 -26.5t-164.5 -38
q-38 -10 -73 -19q-96 -388 -99 -532q-1 -69 25 -80q15 -7 39.5 1.5t57.5 31.5t62 45.5t70 60.5t62.5 58.5t57.5 55.5l31 31l17 16q39 38 54 51q10 9 15 13t12.5 8.5t13.5 4t11 -5.5q7 -5 8 -11.5t-5.5 -18.5t-13.5 -22t-25 -34q-5 -7 -13 -8t-14 4q-2 1 -4 3l-12 -12
l-17 -16q-10 -10 -31 -30q-52 -51 -88 -85t-79.5 -71.5t-75.5 -59.5t-64 -36.5t-56 -14.5q-16 0 -28 6q-50 21 -48 115q2 147 94 520q-202 -57 -228 -82q-5 -5 -13 -5t-13.5 5.5t-5.5 13.5t6 14q35 34 265 97q23 92 71 275q51 194 71 275q-92 -24 -161.5 -50t-116.5 -55
t-55 -56q-8 -25 33 -53q6 -5 7.5 -12.5t-2.5 -14.5q-6 -8 -16 -8q-6 0 -11 3q-64 44 -48 96q31 103 380 193q6 25 10 43q1 8 8 12t14.5 2.5t12 -8t2.5 -14.5l-5 -25q147 36 304 58.5t270 23.5z" />
    <glyph glyph-name="E" unicode="&#xc8;" horiz-adv-x="848" 
d="M1071 965q8 0 13.5 -5.5t5.5 -13.5q0 -5 -2.5 -9.5t-7 -7t-9.5 -2.5q-115 -2 -275 -25.5t-309 -60.5q-20 -84 -76 -296q-44 -168 -65 -254q140 37 271.5 63.5t167.5 24.5q8 -1 13 -6.5t4.5 -13.5t-6 -13.5t-13.5 -5.5q-20 2 -76 -7.5t-134.5 -26.5t-164.5 -38
q-38 -10 -73 -19q-96 -388 -99 -532q-1 -69 25 -80q15 -7 39.5 1.5t57.5 31.5t62 45.5t70 60.5t62.5 58.5t57.5 55.5l31 31l17 16q39 38 54 51q10 9 15 13t12.5 8.5t13.5 4t11 -5.5q7 -5 8 -11.5t-5.5 -18.5t-13.5 -22t-25 -34q-5 -7 -13 -8t-14 4q-2 1 -4 3l-12 -12
l-17 -16q-10 -10 -31 -30q-52 -51 -88 -85t-79.5 -71.5t-75.5 -59.5t-64 -36.5t-56 -14.5q-16 0 -28 6q-50 21 -48 115q2 147 94 520q-202 -57 -228 -82q-5 -5 -13 -5t-13.5 5.5t-5.5 13.5t6 14q35 34 265 97q23 92 71 275q51 194 71 275q-92 -24 -161.5 -50t-116.5 -55
t-55 -56q-8 -25 33 -53q6 -5 7.5 -12.5t-2.5 -14.5q-6 -8 -16 -8q-6 0 -11 3q-64 44 -48 96q31 103 380 193q6 25 10 43q1 8 8 12t14.5 2.5t12 -8t2.5 -14.5l-5 -25q147 36 304 58.5t270 23.5z" />
    <glyph glyph-name="F" unicode="F" horiz-adv-x="778" 
d="M1126 1040q19 -10 19 -30q0 -19 -27 -45t-107 -69q-7 -4 -14.5 -1.5t-11.5 9.5t-1.5 14.5t9.5 11.5q94 51 112 77q-25 10 -128.5 -5.5t-259.5 -63.5q-55 -17 -113 -37q-22 -103 -84 -389q-50 -229 -76 -352q121 35 224 33q8 0 13.5 -6t5.5 -14t-6 -13.5t-14 -5.5
q-107 2 -232 -37q-102 -477 -117 -611q2 5 4 9q3 8 10.5 11t15 0t10.5 -10.5t0 -14.5q-18 -42 -29.5 -59.5t-24.5 -17.5q-4 0 -8 2q-15 5 -17.5 28t7.5 98q13 90 46 260q24 120 60 291q-146 -54 -262 -150q-5 -4 -12 -4q-9 0 -15 7q-5 6 -4 14t7 13q130 108 296 164
q26 125 80 374q58 266 79 365q-287 -105 -481 -235q-5 -3 -11 -3q-10 0 -16 8q-4 7 -2.5 14.5t8.5 12.5q205 138 511 247q8 38 13 66q2 8 8.5 12.5t14.5 3t12.5 -8t2.5 -14.5q-4 -20 -8 -44q42 14 81 26q89 28 172 47.5t159 28.5t101 -7z" />
    <glyph glyph-name="G" unicode="G" horiz-adv-x="927" 
d="M891.5 249q3.5 -7 0.5 -14.5t-10 -10.5q-51 -23 -195 -42q-38 -169 -75 -379t-48 -314q8 4 16 1q5 -2 8.5 -6t4 -8.5t-0.5 -10.5q-13 -35 -22 -50.5t-22 -15.5q-3 0 -7 1q-15 5 -17.5 27t4.5 85q9 79 31 212q29 173 66 349q-128 -234 -253.5 -350t-217.5 -82
q-86 32 -101 181.5t46 374.5q46 169 156.5 384.5t221.5 333.5q46 49 91.5 65t80.5 -3q15 -9 27.5 -24.5t23.5 -49.5t12.5 -81t-9 -124t-36.5 -172q-2 -8 -9 -12t-14.5 -2t-11.5 9t-2 15q33 123 40.5 214.5t-4 135.5t-36.5 57q-22 13 -55.5 -2t-69.5 -52
q-108 -115 -216 -325.5t-153 -376.5q-60 -221 -45 -362q13 -125 77 -148q18 -7 41 -4t48.5 15t54 34t58.5 52q132 134 265 402q-41 -4 -128 -13q-148 -15 -218 -25h-2q-7 0 -12.5 5t-6.5 12q-1 5 1 10t6 8t9 4q71 9 219 24q104 11 152 16q0 1 1 3.5t2 3.5q7 16 24 10
q8 -3 12 -12q129 17 172 37q7 3 14.5 0t11 -10z" />
    <glyph glyph-name="H" unicode="H" horiz-adv-x="851" 
d="M894 399q1 -6 0 -10.5t-4 -8.5t-8 -6q-67 -21 -249 -76q-14 -77 -40 -214q-21 -107 -30.5 -159t-21 -111t-17.5 -85q-3 -15 -19 -15h-4q-7 2 -11.5 8.5t-2.5 14.5q11 56 68 354q24 130 37 195q-1 0 -1.5 -0.5t-1.5 -0.5q-274 -83 -415 -127q-116 -563 -135 -709
q6 -3 9.5 -10t0.5 -14q-5 -14 -8 -21t-9 -13.5t-13 -6.5q-3 0 -7 1q-14 3 -15.5 21t4.5 50q6 46 21 131q27 147 80 410q14 70 30 148q-87 -28 -156 -51q-273 -90 -332 -129q10 -7 8 -19q-3 -16 -19 -16q-2 0 -4 1q-32 6 -34 29q0 16 21 32.5t85 43.5q84 35 241 88
q86 28 198 64q51 247 118 565l5 20q8 38 8 62.5t-2 29t-4 5.5t-6.5 0t-16.5 -8t-26 -19q-35 -30 -73.5 -81t-68.5 -106q-21 -40 -34 -75t-16.5 -61.5t3.5 -43.5q11 -27 57 -24q8 1 14 -4.5t6.5 -13.5t-4.5 -14t-13 -6q-74 -5 -96 48q-15 35 0.5 94.5t49 118.5t74 112.5
t75.5 84.5q60 52 94 31q41 -24 16 -137l-4 -21q-64 -305 -114 -544q136 42 396 121q3 1 7 2t8 2.5t7 1.5q102 535 135 664q2 8 9 12t14.5 2t11.5 -9t2 -14q-32 -126 -131 -642q164 49 229 70q7 2 14.5 -1.5t9.5 -10.5z" />
    <glyph glyph-name="I" unicode="I" horiz-adv-x="513" 
d="M516 991q51 -33 13 -192q-63 -262 -168 -734t-126 -613v-1q8 -2 11 -9.5t1 -14.5q-6 -15 -9.5 -22.5t-10 -15t-13.5 -7.5q-4 0 -7 1q-14 5 -15.5 22.5t5.5 54.5q8 49 26 142q32 160 94 440q101 458 174 766q14 57 15 94t-3 45.5t-8 11.5q-18 11 -69 -29
q-55 -43 -120.5 -128t-120 -182.5t-82 -198t-6.5 -163.5q29 -86 155 -88q8 0 13.5 -5.5t5.5 -13.5t-5.5 -13.5t-13.5 -5.5q-29 0 -55.5 5t-54 17t-49 35.5t-32.5 56.5q-8 25 -10 54.5t1 58.5t11 60.5t17.5 59.5t22 57.5t23.5 52t23 45.5q54 100 123.5 190t129.5 137
q73 56 114 30z" />
    <glyph glyph-name="I" unicode="&#xcf;" horiz-adv-x="513" 
d="M516 991q51 -33 13 -192q-63 -262 -168 -734t-126 -613v-1q8 -2 11 -9.5t1 -14.5q-6 -15 -9.5 -22.5t-10 -15t-13.5 -7.5q-4 0 -7 1q-14 5 -15.5 22.5t5.5 54.5q8 49 26 142q32 160 94 440q101 458 174 766q14 57 15 94t-3 45.5t-8 11.5q-18 11 -69 -29
q-55 -43 -120.5 -128t-120 -182.5t-82 -198t-6.5 -163.5q29 -86 155 -88q8 0 13.5 -5.5t5.5 -13.5t-5.5 -13.5t-13.5 -5.5q-29 0 -55.5 5t-54 17t-49 35.5t-32.5 56.5q-8 25 -10 54.5t1 58.5t11 60.5t17.5 59.5t22 57.5t23.5 52t23 45.5q54 100 123.5 190t129.5 137
q73 56 114 30z" />
    <glyph glyph-name="I" unicode="&#xce;" horiz-adv-x="513" 
d="M516 991q51 -33 13 -192q-63 -262 -168 -734t-126 -613v-1q8 -2 11 -9.5t1 -14.5q-6 -15 -9.5 -22.5t-10 -15t-13.5 -7.5q-4 0 -7 1q-14 5 -15.5 22.5t5.5 54.5q8 49 26 142q32 160 94 440q101 458 174 766q14 57 15 94t-3 45.5t-8 11.5q-18 11 -69 -29
q-55 -43 -120.5 -128t-120 -182.5t-82 -198t-6.5 -163.5q29 -86 155 -88q8 0 13.5 -5.5t5.5 -13.5t-5.5 -13.5t-13.5 -5.5q-29 0 -55.5 5t-54 17t-49 35.5t-32.5 56.5q-8 25 -10 54.5t1 58.5t11 60.5t17.5 59.5t22 57.5t23.5 52t23 45.5q54 100 123.5 190t129.5 137
q73 56 114 30z" />
    <glyph glyph-name="I" unicode="&#xcd;" horiz-adv-x="513" 
d="M516 991q51 -33 13 -192q-63 -262 -168 -734t-126 -613v-1q8 -2 11 -9.5t1 -14.5q-6 -15 -9.5 -22.5t-10 -15t-13.5 -7.5q-4 0 -7 1q-14 5 -15.5 22.5t5.5 54.5q8 49 26 142q32 160 94 440q101 458 174 766q14 57 15 94t-3 45.5t-8 11.5q-18 11 -69 -29
q-55 -43 -120.5 -128t-120 -182.5t-82 -198t-6.5 -163.5q29 -86 155 -88q8 0 13.5 -5.5t5.5 -13.5t-5.5 -13.5t-13.5 -5.5q-29 0 -55.5 5t-54 17t-49 35.5t-32.5 56.5q-8 25 -10 54.5t1 58.5t11 60.5t17.5 59.5t22 57.5t23.5 52t23 45.5q54 100 123.5 190t129.5 137
q73 56 114 30z" />
    <glyph glyph-name="I" unicode="&#xcc;" horiz-adv-x="513" 
d="M516 991q51 -33 13 -192q-63 -262 -168 -734t-126 -613v-1q8 -2 11 -9.5t1 -14.5q-6 -15 -9.5 -22.5t-10 -15t-13.5 -7.5q-4 0 -7 1q-14 5 -15.5 22.5t5.5 54.5q8 49 26 142q32 160 94 440q101 458 174 766q14 57 15 94t-3 45.5t-8 11.5q-18 11 -69 -29
q-55 -43 -120.5 -128t-120 -182.5t-82 -198t-6.5 -163.5q29 -86 155 -88q8 0 13.5 -5.5t5.5 -13.5t-5.5 -13.5t-13.5 -5.5q-29 0 -55.5 5t-54 17t-49 35.5t-32.5 56.5q-8 25 -10 54.5t1 58.5t11 60.5t17.5 59.5t22 57.5t23.5 52t23 45.5q54 100 123.5 190t129.5 137
q73 56 114 30z" />
    <glyph glyph-name="J" unicode="J" horiz-adv-x="780" 
d="M851 462q0 -5 -2 -9.5t-6 -7.5t-9 -4q-117 -13 -218 -44q-112 -493 -175 -797q-21 -95 -60 -152.5t-92 -70.5q-14 -4 -29 -4q-70 0 -129 71q-43 52 -65 139.5t-14 200t50 217.5q75 184 239 304q105 76 243 122q42 186 72 309q16 65 19 110t-1.5 59.5t-10.5 16.5
q-12 4 -34 -13.5t-47 -53t-40 -76.5q-7 -19 -11 -37.5t-4 -40.5t11.5 -40.5t33.5 -28.5q7 -3 10 -10.5t0 -14.5t-10.5 -10t-15.5 0q-49 22 -62.5 74t12.5 122q25 68 76 123.5t92 42.5q70 -21 19 -232q-28 -116 -67 -287q95 27 204 39q7 1 13.5 -4t7.5 -13zM403 -392
q61 291 171 775q-93 -33 -168.5 -80t-126.5 -101.5t-84.5 -106.5t-56.5 -109q-33 -81 -44.5 -177.5t5 -190.5t61.5 -149q28 -34 59.5 -48t60.5 -7q42 10 73.5 60t49.5 134z" />
    <glyph glyph-name="K" unicode="K" horiz-adv-x="808" 
d="M981 1025q-30 -119 -69.5 -223.5t-80.5 -182t-88 -144t-90 -112t-89 -82.5t-82 -58.5t-72 -37.5q-63 -28 -122 -41q52 -62 154 -234q30 -51 46 -77.5t44.5 -70.5t48.5 -69t46 -53t50.5 -43t48.5 -20q49 -11 99 23q7 5 14.5 3.5t12 -8t3.5 -14.5t-8 -12q-48 -33 -97 -33
q-16 0 -32 3q-21 5 -42.5 15.5t-42.5 28.5t-39 35.5t-39.5 46.5t-36.5 50t-38 57.5t-35.5 57.5t-36.5 61q-104 176 -157 238q-107 -458 -123 -587q4 9 9 20q3 7 10.5 10t15 0t10 -10.5t-0.5 -15.5q-20 -45 -32.5 -63.5t-26.5 -18.5q-4 0 -8 1q-16 6 -17.5 31t10.5 106
q17 98 56 278q24 109 58 255q-17 0 -32 1q-84 6 -118 49q-23 29 -5 53q30 38 123 -3q24 -11 49 -30q32 136 94 393q53 221 71 296q1 8 8 12t14.5 2.5t12 -8.5t2.5 -15q-17 -73 -71 -296q-63 -261 -98 -410q65 11 133 41q29 14 59 31.5t67.5 44.5t73.5 63.5t75 82.5t76.5 107
t72.5 132t67 161.5t58 191.5q2 8 9 12t14.5 2t11.5 -9t2 -14zM107 196q38 -24 99 -23q-21 18 -42 27q-56 24 -75 15q3 -9 18 -19z" />
    <glyph glyph-name="L" unicode="L" horiz-adv-x="678" 
d="M790 -156q8 0 13.5 -5.5t5.5 -13.5q0 -5 -3 -9.5t-7.5 -7t-9.5 -2.5q-36 1 -81.5 -11.5t-103.5 -40.5t-96 -48.5t-105 -57.5q-76 -43 -114 -63.5t-86 -39.5t-79 -19q-27 0 -45 13q-46 35 -19 153q75 329 208 794q32 112 58.5 199t45 143.5t34.5 95t24.5 57.5t17.5 28
t13 9.5t11 -0.5q18 -2 22 -28t-1 -80q-1 -8 -7 -13t-14 -4.5t-13.5 6.5t-4.5 14q2 18 3 33q-52 -119 -160 -500q-128 -451 -199 -763q-22 -93 4 -113q7 -5 18 -6t26.5 3t30.5 8.5t38 15.5t39 19t43.5 23t42.5 23.5t44 24.5q56 32 85.5 48t82 42.5t87.5 40t76.5 23.5t74.5 9z
" />
    <glyph glyph-name="M" unicode="M" horiz-adv-x="1267" 
d="M1252 863q4 -61 -13.5 -197t-36 -245t-56.5 -314q-85 -469 -82 -546q4 7 9 15q4 7 11.5 9t14.5 -2t9 -11.5t-2 -14.5q-15 -26 -28.5 -39.5t-30.5 -7.5q-10 4 -15 14.5t-6 38t3 67t15 110t26 156.5t39 217q36 199 54.5 306.5t36 245t14.5 195.5q-4 55 -20 57h-1
q-7 0 -17.5 -7t-28 -25t-37.5 -45.5t-47 -73t-56 -103.5q-152 -304 -293 -791q-2 -8 -8.5 -11.5t-14 -2t-12 8t-3.5 13.5q70 412 75 619q1 48 -1.5 84t-6 53t-9 28t-7.5 12.5t-4 2.5q-19 3 -61 -53q-75 -99 -184 -348q-83 -190 -165 -423.5t-145 -457.5v-1l-7.5 -18
t-6.5 -14t-9 -11t-11 -3q-3 0 -7 1q-13 4 -14.5 21.5t4.5 51.5q7 47 24 135q30 151 88 414q94 428 166 730q6 28 10 52t5.5 41t0.5 30.5t-2.5 21.5t-4 14t-5 8t-4.5 4q-23 15 -85 -33q-28 -22 -57.5 -53t-57.5 -68t-53 -78t-44 -82.5t-31.5 -82.5t-14 -76.5t7.5 -65.5
q29 -86 166 -88q5 0 9.5 -2.5t7 -7t2.5 -10.5q0 -8 -6 -13.5t-13 -5.5h-1q-31 1 -59 6t-57.5 17t-52 35.5t-33.5 56.5q-37 112 62 297q41 75 95 143t107 109q83 64 129 34q58 -37 16 -212q-43 -183 -121 -528.5t-122 -563.5q119 382 254 692q31 71 60 131t51.5 102t44 74.5
t36.5 52.5t30 34t24 20t19 8t14 1.5t10 -1.5q11 -2 20 -9.5t17.5 -25t13.5 -44.5t6.5 -72t-1 -103.5t-11 -142t-22.5 -185.5q48 147 98.5 275.5t99 229.5t93 173.5t84 109t69.5 33.5q47 -5 53 -92z" />
    <glyph glyph-name="N" unicode="N" horiz-adv-x="1119" 
d="M990 -240.5q7 -3.5 9.5 -11t-0.5 -15.5q-18 -34 -31 -48t-29 -9q-13 4 -18 17.5t-3 57.5t10.5 111t27.5 194q18 127 28 197t19.5 167.5t7.5 153.5q-3 120 -51 126q-41 6 -117 -69t-170 -239q-215 -372 -381 -964q-1 0 -1 -1q-4 -12 -6.5 -17.5t-6.5 -13t-9 -11t-11 -3.5
q-3 0 -7 2q-13 4 -14.5 22t4.5 54q8 50 26 144q31 162 92 442q106 487 174 772q12 52 13 87t-3.5 44.5t-9.5 13.5q-11 6 -36.5 -3t-63.5 -39q-70 -54 -148 -149.5t-139.5 -198.5t-92.5 -204t-11 -161q26 -77 142 -79q8 0 13.5 -6t5.5 -14t-5.5 -13.5t-13.5 -5.5
q-144 3 -179 106q-9 28 -9.5 63t7.5 71.5t20 72.5t29 72t31.5 64.5t31.5 55.5q63 108 143.5 205t150.5 152q96 74 144 43q53 -34 17 -186q-43 -183 -128.5 -567.5t-131.5 -616.5q66 209 140.5 391.5t145.5 315.5t139 228t126.5 139.5t103.5 39.5q81 -11 85 -164
q1 -57 -8.5 -156t-19 -169.5t-28.5 -198.5q-37 -257 -38 -317q4 8 9 17q3 7 10.5 9.5t14.5 -1z" />
    <glyph glyph-name="N" unicode="&#xd1;" horiz-adv-x="1119" 
d="M990 -240.5q7 -3.5 9.5 -11t-0.5 -15.5q-18 -34 -31 -48t-29 -9q-13 4 -18 17.5t-3 57.5t10.5 111t27.5 194q18 127 28 197t19.5 167.5t7.5 153.5q-3 120 -51 126q-41 6 -117 -69t-170 -239q-215 -372 -381 -964q-1 0 -1 -1q-4 -12 -6.5 -17.5t-6.5 -13t-9 -11t-11 -3.5
q-3 0 -7 2q-13 4 -14.5 22t4.5 54q8 50 26 144q31 162 92 442q106 487 174 772q12 52 13 87t-3.5 44.5t-9.5 13.5q-11 6 -36.5 -3t-63.5 -39q-70 -54 -148 -149.5t-139.5 -198.5t-92.5 -204t-11 -161q26 -77 142 -79q8 0 13.5 -6t5.5 -14t-5.5 -13.5t-13.5 -5.5
q-144 3 -179 106q-9 28 -9.5 63t7.5 71.5t20 72.5t29 72t31.5 64.5t31.5 55.5q63 108 143.5 205t150.5 152q96 74 144 43q53 -34 17 -186q-43 -183 -128.5 -567.5t-131.5 -616.5q66 209 140.5 391.5t145.5 315.5t139 228t126.5 139.5t103.5 39.5q81 -11 85 -164
q1 -57 -8.5 -156t-19 -169.5t-28.5 -198.5q-37 -257 -38 -317q4 8 9 17q3 7 10.5 9.5t14.5 -1z" />
    <glyph glyph-name="O" unicode="O" horiz-adv-x="919" 
d="M733 877q48 -45 78.5 -125.5t42 -186t-6.5 -240t-66 -274.5q-48 -141 -110 -249.5t-126 -172.5t-126.5 -96t-120.5 -32q-31 0 -58 8q-67 21 -113 86t-65 166q-42 225 53 568q17 61 39 120t50.5 117t60.5 104t70.5 80.5t78.5 47.5q18 6 35 8q56 81 121 107q88 35 163 -36z
M745 63q45 133 62.5 262t8 229.5t-37.5 177t-71 117.5q-58 54 -123 28q-46 -18 -89 -74q35 -8 68 -34q6 -5 7 -13t-4 -14t-12.5 -7t-14.5 4q-34 26 -68 28q-78 -123 -132.5 -364t-70.5 -602q0 -8 -6 -13.5t-14 -5t-13.5 6.5t-4.5 13q9 217 35 400.5t65 323.5t91 234
q-75 -29 -148 -148.5t-121 -292.5q-38 -137 -53.5 -257t-9.5 -207t28 -153t56 -104t78 -52q54 -17 118 7t130 85t131 171t115 254z" />
    <glyph glyph-name="O" unicode="&#xd8;" horiz-adv-x="919" 
d="M733 877q48 -45 78.5 -125.5t42 -186t-6.5 -240t-66 -274.5q-48 -141 -110 -249.5t-126 -172.5t-126.5 -96t-120.5 -32q-31 0 -58 8q-67 21 -113 86t-65 166q-42 225 53 568q17 61 39 120t50.5 117t60.5 104t70.5 80.5t78.5 47.5q18 6 35 8q56 81 121 107q88 35 163 -36z
M745 63q45 133 62.5 262t8 229.5t-37.5 177t-71 117.5q-58 54 -123 28q-46 -18 -89 -74q35 -8 68 -34q6 -5 7 -13t-4 -14t-12.5 -7t-14.5 4q-34 26 -68 28q-78 -123 -132.5 -364t-70.5 -602q0 -8 -6 -13.5t-14 -5t-13.5 6.5t-4.5 13q9 217 35 400.5t65 323.5t91 234
q-75 -29 -148 -148.5t-121 -292.5q-38 -137 -53.5 -257t-9.5 -207t28 -153t56 -104t78 -52q54 -17 118 7t130 85t131 171t115 254z" />
    <glyph glyph-name="O" unicode="&#xd5;" horiz-adv-x="919" 
d="M733 877q48 -45 78.5 -125.5t42 -186t-6.5 -240t-66 -274.5q-48 -141 -110 -249.5t-126 -172.5t-126.5 -96t-120.5 -32q-31 0 -58 8q-67 21 -113 86t-65 166q-42 225 53 568q17 61 39 120t50.5 117t60.5 104t70.5 80.5t78.5 47.5q18 6 35 8q56 81 121 107q88 35 163 -36z
M745 63q45 133 62.5 262t8 229.5t-37.5 177t-71 117.5q-58 54 -123 28q-46 -18 -89 -74q35 -8 68 -34q6 -5 7 -13t-4 -14t-12.5 -7t-14.5 4q-34 26 -68 28q-78 -123 -132.5 -364t-70.5 -602q0 -8 -6 -13.5t-14 -5t-13.5 6.5t-4.5 13q9 217 35 400.5t65 323.5t91 234
q-75 -29 -148 -148.5t-121 -292.5q-38 -137 -53.5 -257t-9.5 -207t28 -153t56 -104t78 -52q54 -17 118 7t130 85t131 171t115 254z" />
    <glyph glyph-name="O" unicode="&#xd4;" horiz-adv-x="919" 
d="M733 877q48 -45 78.5 -125.5t42 -186t-6.5 -240t-66 -274.5q-48 -141 -110 -249.5t-126 -172.5t-126.5 -96t-120.5 -32q-31 0 -58 8q-67 21 -113 86t-65 166q-42 225 53 568q17 61 39 120t50.5 117t60.5 104t70.5 80.5t78.5 47.5q18 6 35 8q56 81 121 107q88 35 163 -36z
M745 63q45 133 62.5 262t8 229.5t-37.5 177t-71 117.5q-58 54 -123 28q-46 -18 -89 -74q35 -8 68 -34q6 -5 7 -13t-4 -14t-12.5 -7t-14.5 4q-34 26 -68 28q-78 -123 -132.5 -364t-70.5 -602q0 -8 -6 -13.5t-14 -5t-13.5 6.5t-4.5 13q9 217 35 400.5t65 323.5t91 234
q-75 -29 -148 -148.5t-121 -292.5q-38 -137 -53.5 -257t-9.5 -207t28 -153t56 -104t78 -52q54 -17 118 7t130 85t131 171t115 254z" />
    <glyph glyph-name="O" unicode="&#xd3;" horiz-adv-x="919" 
d="M733 877q48 -45 78.5 -125.5t42 -186t-6.5 -240t-66 -274.5q-48 -141 -110 -249.5t-126 -172.5t-126.5 -96t-120.5 -32q-31 0 -58 8q-67 21 -113 86t-65 166q-42 225 53 568q17 61 39 120t50.5 117t60.5 104t70.5 80.5t78.5 47.5q18 6 35 8q56 81 121 107q88 35 163 -36z
M745 63q45 133 62.5 262t8 229.5t-37.5 177t-71 117.5q-58 54 -123 28q-46 -18 -89 -74q35 -8 68 -34q6 -5 7 -13t-4 -14t-12.5 -7t-14.5 4q-34 26 -68 28q-78 -123 -132.5 -364t-70.5 -602q0 -8 -6 -13.5t-14 -5t-13.5 6.5t-4.5 13q9 217 35 400.5t65 323.5t91 234
q-75 -29 -148 -148.5t-121 -292.5q-38 -137 -53.5 -257t-9.5 -207t28 -153t56 -104t78 -52q54 -17 118 7t130 85t131 171t115 254z" />
    <glyph glyph-name="O" unicode="&#xd2;" horiz-adv-x="919" 
d="M733 877q48 -45 78.5 -125.5t42 -186t-6.5 -240t-66 -274.5q-48 -141 -110 -249.5t-126 -172.5t-126.5 -96t-120.5 -32q-31 0 -58 8q-67 21 -113 86t-65 166q-42 225 53 568q17 61 39 120t50.5 117t60.5 104t70.5 80.5t78.5 47.5q18 6 35 8q56 81 121 107q88 35 163 -36z
M745 63q45 133 62.5 262t8 229.5t-37.5 177t-71 117.5q-58 54 -123 28q-46 -18 -89 -74q35 -8 68 -34q6 -5 7 -13t-4 -14t-12.5 -7t-14.5 4q-34 26 -68 28q-78 -123 -132.5 -364t-70.5 -602q0 -8 -6 -13.5t-14 -5t-13.5 6.5t-4.5 13q9 217 35 400.5t65 323.5t91 234
q-75 -29 -148 -148.5t-121 -292.5q-38 -137 -53.5 -257t-9.5 -207t28 -153t56 -104t78 -52q54 -17 118 7t130 85t131 171t115 254z" />
    <glyph glyph-name="P" unicode="P" horiz-adv-x="882" 
d="M908 972q27 -18 46.5 -45.5t32 -70t5.5 -106.5t-35 -143q-92 -255 -244 -400q-61 -58 -125.5 -90t-122.5 -32q-6 0 -12 1q-91 6 -129 86q-126 -523 -145 -665q2 4 4 9q3 7 10.5 10t14.5 -0.5t10 -11t0 -14.5q-19 -41 -31 -58.5t-25 -17.5q-4 0 -8 2q-15 5 -17 28.5
t11 99.5q15 91 53 261q47 210 170 712q70 287 94 388q-137 -58 -235 -144q-50 -44 -82 -88t-44.5 -78.5t-14 -68.5t4 -56.5t15.5 -43.5q4 -7 1.5 -14.5t-9.5 -11t-14.5 -1t-11.5 9.5q-44 88 -10.5 188t139.5 193q115 100 272 161q4 20 8 36q1 7 8 11.5t14.5 3t12 -8.5
t2.5 -15q-1 -3 -2 -11q25 8 50 15q107 29 194.5 24t144.5 -44zM920 620q13 36 21.5 69t12 71.5t-1 70t-21 61t-45.5 49.5q-49 33 -129.5 36.5t-177.5 -22.5q-35 -10 -71 -23q-23 -103 -99 -414q-45 -181 -70 -284q7 -4 9 -12q10 -45 37.5 -70t69.5 -28q51 -3 112 26t120 85
q145 138 233 385z" />
    <glyph glyph-name="Q" unicode="Q" horiz-adv-x="913" 
d="M1001 -368q18 -23 23 -34t1 -20q-5 -11 -17 -12q-2 -1 -3 -1q-8 0 -26 13t-90 78.5t-197 187.5q-20 20 -41 40q-57 -81 -122 -128q-84 -61 -174 -61q-41 0 -80 14q-88 30 -147.5 119t-75 227t38.5 313q43 138 126.5 260t188.5 178q71 119 157 146q92 29 168 -52
q46 -49 75 -131.5t35 -183.5q16 -235 -84 -496q-37 -96 -85 -172q214 -210 300 -284l2 2q7 5 14.5 4t12.5 -7zM287 -255q86 -30 174 14t162 153q-211 207 -224 226q-5 7 -3.5 15t8 12.5t14.5 3t12 -7.5q19 -24 214 -216q43 70 77 157q39 102 60 203.5t23.5 186.5t-9 160
t-35 130.5t-57.5 91.5q-59 63 -129 41q-55 -17 -105 -82q2 0 3 1q149 42 287 -77q6 -5 6.5 -13t-4.5 -14t-13 -6.5t-14 4.5q-123 106 -251 69q-25 -7 -50 -20q-100 -175 -150 -507q-1 -8 -7.5 -12.5t-14.5 -3.5t-12.5 7.5t-3.5 14.5q43 284 124 461q-79 -62 -142.5 -165.5
t-98.5 -214.5q-72 -230 -15 -409q24 -76 69.5 -129.5t104.5 -73.5z" />
    <glyph glyph-name="R" unicode="R" horiz-adv-x="921" 
d="M1008.5 -242q6.5 -5 7 -13t-4.5 -15q-53 -65 -112 -65h-4q-21 0 -42 8.5t-43.5 27t-39.5 35.5t-42.5 50t-40.5 53t-44 62q-42 58 -65.5 90t-63.5 79t-76 78q-61 -15 -120 -14q-122 -499 -141 -634q3 7 7 16q3 7 10.5 10t15 -0.5t10 -11t-0.5 -14.5q-10 -23 -17.5 -37
t-14.5 -25t-13.5 -16t-13.5 -5q-4 0 -8 2q-9 3 -13 10.5t-4 32t8 70.5t24.5 125t43.5 196t68 284q-51 6 -81 26t-38 46q-12 35 18 58q43 34 133 2q13 51 25 103q86 350 109 452q2 8 8.5 12.5t14.5 2.5t12 -8.5t3 -14.5q-23 -103 -109 -453q-19 -74 -27 -110q25 -12 51 -27
q24 -15 49 -35q110 31 215 112t185 217q64 108 79 207t-23 161q-57 90 -217 79q-79 -5 -166 -33.5t-162.5 -71.5t-138 -99t-95.5 -114q-64 -112 -13 -213q3 -7 0.5 -14.5t-9.5 -11t-14.5 -1t-11.5 9.5q-60 120 14 249q48 84 144.5 159t216 123t233.5 56q183 12 251 -98
q44 -71 29.5 -180.5t-84.5 -227.5q-94 -160 -241 -260q-76 -53 -157 -80q33 -31 70.5 -76t60 -75.5t61.5 -85.5q32 -44 48 -66.5t44 -57t46.5 -51.5t41.5 -30.5t42 -14.5q42 -1 86 52q5 6 12.5 7t14 -4zM196 220q3 -10 14 -19t31.5 -16.5t46.5 -10.5l14 56q-41 16 -68 16
q-21 0 -33 -9q-8 -7 -5 -17zM327 173q35 0 71 7q-10 7 -20 13q-19 11 -41 22q-7 -29 -10 -42z" />
    <glyph glyph-name="S" unicode="S" horiz-adv-x="938" 
d="M977 228.5q5 -6.5 3.5 -14t-8.5 -12.5q-155 -111 -283 -210q13 -41 3 -90q-16 -81 -58.5 -158t-97 -135t-115 -103t-115 -69t-95.5 -27q-6 -1 -11 -1q-48 0 -61 36q-23 63 107 207t396 352q-30 55 -118 101.5t-278 123.5q-52 21 -80 33q-72 30 -100 81t-7 117
q26 84 126 182.5t218.5 172.5t239 118t186.5 29q15 -3 27.5 -9.5t25.5 -19.5t18.5 -35.5t1.5 -53.5q-1 -5 -4 -9t-8 -6t-10 -1q-8 1 -13 7.5t-4 14.5q6 37 -6.5 53t-35.5 21q-37 9 -100 -6t-140.5 -50.5t-157.5 -87.5q-129 -81 -217 -170t-110 -161q-33 -103 85 -152
q27 -11 80 -32q66 -27 98 -40.5t84 -36t80 -38.5t61 -37t54 -41.5t35 -43.5q126 98 277 205q7 5 14.5 3.5t12.5 -8zM655 -90q6 30 1 56q-213 -167 -338 -294q-73 -75 -112 -133.5t-31 -80.5q4 -12 33 -10q34 3 83.5 25t106 64t108 95.5t92.5 127t57 150.5z" />
    <glyph glyph-name="T" unicode="T" horiz-adv-x="542" 
d="M1294 1156.5q2 -7.5 -1.5 -14.5t-10.5 -10q-71 -22 -302 -92q-265 -80 -402 -123q-33 -130 -132 -575q-102 -463 -146 -643q-35 -146 -57 -220q-17 -58 -27 -77.5t-24 -19.5h-4q-18 3 -21 30t5 124q1 8 7 13t14 4q5 0 9.5 -3t6.5 -8t1 -10q-2 -22 -3 -40q47 164 202 859
q93 420 126 552q-91 -28 -163 -52q-270 -90 -328 -128q10 -7 8 -19q-3 -16 -19 -16q-2 0 -4 1q-32 6 -34 29q0 16 21 32.5t84 42.5q82 35 238 87q191 64 631 197q230 69 301 92q7 2 14.5 -1.5t9.5 -11z" />
    <glyph glyph-name="U" unicode="U" horiz-adv-x="876" 
d="M884 962q12 -3 13.5 -16t-1.5 -26q-4 -20 -12 -58q-11 -49 -45 -200q-38 -165 -61 -268.5t-59 -272.5t-57.5 -299.5t-28.5 -217.5q-2 -28 -1 -49.5t3.5 -37.5t7 -26.5t8 -16t6.5 -6.5q4 -1 11 4.5t20 27.5t25 57q3 8 10 11.5t14.5 1t11 -10t0.5 -14.5q-40 -116 -90 -116
q-5 0 -10 1q-31 7 -45.5 54.5t-8.5 122.5q19 243 180 949q-118 -344 -241 -572q-55 -101 -108 -174.5t-103 -116.5t-95 -54q-64 -15 -108 32q-89 95 -65 398t153 716q2 8 9 11.5t15 1t11.5 -9.5t1.5 -14q-69 -221 -108.5 -411t-46 -322t8 -219t49.5 -124q29 -31 71 -21
q45 11 100.5 65t120.5 157.5t131.5 246t139 344t139.5 438.5v1q5 13 8 19.5t10 11.5t16 2z" />
    <glyph glyph-name="U" unicode="&#xdb;" horiz-adv-x="876" 
d="M884 962q12 -3 13.5 -16t-1.5 -26q-4 -20 -12 -58q-11 -49 -45 -200q-38 -165 -61 -268.5t-59 -272.5t-57.5 -299.5t-28.5 -217.5q-2 -28 -1 -49.5t3.5 -37.5t7 -26.5t8 -16t6.5 -6.5q4 -1 11 4.5t20 27.5t25 57q3 8 10 11.5t14.5 1t11 -10t0.5 -14.5q-40 -116 -90 -116
q-5 0 -10 1q-31 7 -45.5 54.5t-8.5 122.5q19 243 180 949q-118 -344 -241 -572q-55 -101 -108 -174.5t-103 -116.5t-95 -54q-64 -15 -108 32q-89 95 -65 398t153 716q2 8 9 11.5t15 1t11.5 -9.5t1.5 -14q-69 -221 -108.5 -411t-46 -322t8 -219t49.5 -124q29 -31 71 -21
q45 11 100.5 65t120.5 157.5t131.5 246t139 344t139.5 438.5v1q5 13 8 19.5t10 11.5t16 2z" />
    <glyph glyph-name="U" unicode="&#xda;" horiz-adv-x="876" 
d="M884 962q12 -3 13.5 -16t-1.5 -26q-4 -20 -12 -58q-11 -49 -45 -200q-38 -165 -61 -268.5t-59 -272.5t-57.5 -299.5t-28.5 -217.5q-2 -28 -1 -49.5t3.5 -37.5t7 -26.5t8 -16t6.5 -6.5q4 -1 11 4.5t20 27.5t25 57q3 8 10 11.5t14.5 1t11 -10t0.5 -14.5q-40 -116 -90 -116
q-5 0 -10 1q-31 7 -45.5 54.5t-8.5 122.5q19 243 180 949q-118 -344 -241 -572q-55 -101 -108 -174.5t-103 -116.5t-95 -54q-64 -15 -108 32q-89 95 -65 398t153 716q2 8 9 11.5t15 1t11.5 -9.5t1.5 -14q-69 -221 -108.5 -411t-46 -322t8 -219t49.5 -124q29 -31 71 -21
q45 11 100.5 65t120.5 157.5t131.5 246t139 344t139.5 438.5v1q5 13 8 19.5t10 11.5t16 2z" />
    <glyph glyph-name="U" unicode="&#xd9;" horiz-adv-x="876" 
d="M884 962q12 -3 13.5 -16t-1.5 -26q-4 -20 -12 -58q-11 -49 -45 -200q-38 -165 -61 -268.5t-59 -272.5t-57.5 -299.5t-28.5 -217.5q-2 -28 -1 -49.5t3.5 -37.5t7 -26.5t8 -16t6.5 -6.5q4 -1 11 4.5t20 27.5t25 57q3 8 10 11.5t14.5 1t11 -10t0.5 -14.5q-40 -116 -90 -116
q-5 0 -10 1q-31 7 -45.5 54.5t-8.5 122.5q19 243 180 949q-118 -344 -241 -572q-55 -101 -108 -174.5t-103 -116.5t-95 -54q-64 -15 -108 32q-89 95 -65 398t153 716q2 8 9 11.5t15 1t11.5 -9.5t1.5 -14q-69 -221 -108.5 -411t-46 -322t8 -219t49.5 -124q29 -31 71 -21
q45 11 100.5 65t120.5 157.5t131.5 246t139 344t139.5 438.5v1q5 13 8 19.5t10 11.5t16 2z" />
    <glyph glyph-name="V" unicode="V" horiz-adv-x="849" 
d="M1053 976.5q7 -3.5 9.5 -11t-0.5 -14.5q-11 -21 -42 -82q-249 -492 -408 -767q-87 -150 -156 -253t-114.5 -152.5t-74 -68.5t-50.5 -19q-7 0 -14 2q-60 14 -58 163q3 199 194 972q16 64 21 86q8 32 11 57.5t2.5 39t-3 23t-4.5 12t-4 3.5q-17 11 -65 -27
q-40 -31 -81.5 -83.5t-73 -109.5t-46 -116t-1.5 -98q22 -67 131 -69q8 0 13.5 -6t5.5 -14t-5.5 -13.5t-13.5 -4.5q-76 1 -115 28t-53 67q-16 53 0 117.5t52.5 129.5t80 118.5t83.5 84.5q69 54 109 28q49 -32 15 -176q-5 -22 -21 -86q-191 -769 -194 -964q0 -31 2 -54.5
t5.5 -36t8 -21t7.5 -10.5t6 -3q3 0 6 -0.5t9.5 2.5t14 7t19.5 13.5t25 22.5t30.5 33.5t37.5 46.5q92 120 225 349q159 273 407 764q32 63 41 82q4 7 11.5 9.5t14.5 -1z" />
    <glyph glyph-name="W" unicode="W" horiz-adv-x="1159" 
d="M1177 709q11 -65 -18.5 -197t-84 -277t-139.5 -285t-174 -211q-70 -56 -118 -32q-27 13 -43.5 47.5t-23.5 95t-8.5 118.5t0.5 151q2 172 -9 198q-14 -13 -40 -58q-217 -386 -338 -562q-59 -85 -93.5 -119t-55.5 -34q-7 0 -14 3q-10 5 -15.5 13.5t-7 33t5.5 63.5
t25.5 108.5t48.5 165.5q83 259 241 671q22 57 42 105t35 81.5t29 60t23.5 43t19 28t15 16.5t12 7t9 2t7.5 -1q13 -3 20 -16.5t7.5 -35t-1.5 -50.5q0 -8 -6 -13t-14 -4.5t-13 6.5t-5 14q2 35 0 53q-46 -57 -144 -310q-51 -134 -94.5 -252t-74.5 -207t-56 -165t-40.5 -128.5
t-26.5 -95.5t-16.5 -69t-8 -45.5t-2 -28t1.5 -13.5q35 17 128 156q119 176 323 538q27 48 46 66t38 13q26 -7 32 -56.5t4 -182.5q-2 -51 -0.5 -113t5 -116.5t16 -95.5t33.5 -51q26 -13 77 27q84 67 165.5 202t135 275.5t82.5 268t19 188.5q-4 26 -14 29q-14 5 -48 -26
q-6 -5 -14 -4.5t-13.5 6.5t-5 14t6.5 13q52 46 87 34q31 -11 39 -60z" />
    <glyph glyph-name="X" unicode="X" horiz-adv-x="856" 
d="M1097 966q8 0 14 -5t6 -13q1 -8 -4 -13.5t-12 -6.5q-30 -13 -198.5 -199.5t-381.5 -444.5q-54 -66 -107 -132q8 -27 9 -31q34 -115 66 -203t56.5 -141t47 -87.5t38 -47.5t29.5 -15q21 -3 34 7q27 23 32 102q0 9 6 14t14 4.5t13.5 -6.5t4.5 -14q-5 -97 -45 -129
q-21 -17 -50 -17q-7 0 -15 1q-19 3 -36.5 14t-43 44.5t-52 88t-62 150t-74.5 224.5v2l-1 3q-192 -241 -314.5 -416.5t-154.5 -254.5q-11 -30 -9 -41q4 -1 12 1t14.5 -2t8.5 -11.5t-2 -14.5t-12 -9q-10 -3 -19 -3q-20 0 -31 14q-21 24 7 91q77 179 486 691q-19 65 -53 186
q-117 406 -147 455q-8 -4 -16 -1q-7 3 -10.5 10t-0.5 15q9 22 28 21q14 -1 26.5 -18t34 -73.5t48.5 -145.5t74 -253q29 -101 46 -159q57 70 111 136q209 253 377 437q80 89 129 136t59.5 53t19.5 7z" />
    <glyph glyph-name="Y" unicode="Y" horiz-adv-x="948" 
d="M970 295q3 -7 0 -14.5t-10 -10.5q-114 -47 -215 -98q-75 -323 -186 -539q-81 -159 -174 -249t-181 -95q-5 -1 -10 -1q-52 0 -88.5 31.5t-49.5 87.5q-12 54 0 121t57.5 150.5t120 168t198 177t280.5 174.5q61 268 94 594q3 29 4 50q-10 -23 -35 -80q-28 -65 -45.5 -104
t-53 -111.5t-65.5 -122.5t-71 -106.5t-80 -94.5q-130 -122 -207 -97q-53 16 -68 92q-14 72 8 176.5t77 209t129 166.5q6 5 14 4.5t13 -6.5t4.5 -14t-6.5 -13q-67 -57 -119 -155t-73.5 -196t-8.5 -165q11 -53 42 -63q55 -17 168 89q32 30 64 70.5t61.5 90.5t53 92t50.5 100
t41 89t37 84q42 97 56.5 121.5t33.5 19.5q16 -4 19 -29t-5 -101q-31 -309 -88 -568q90 45 189 85q7 3 14.5 0t10.5 -10zM525 -349q103 201 175 497q-298 -161 -460 -354q-86 -102 -125 -202.5t-21 -176.5q10 -44 38 -67.5t69 -20.5q77 5 163 90.5t161 233.5z" />
    <glyph glyph-name="Y" unicode="&#xdd;" horiz-adv-x="948" 
d="M970 295q3 -7 0 -14.5t-10 -10.5q-114 -47 -215 -98q-75 -323 -186 -539q-81 -159 -174 -249t-181 -95q-5 -1 -10 -1q-52 0 -88.5 31.5t-49.5 87.5q-12 54 0 121t57.5 150.5t120 168t198 177t280.5 174.5q61 268 94 594q3 29 4 50q-10 -23 -35 -80q-28 -65 -45.5 -104
t-53 -111.5t-65.5 -122.5t-71 -106.5t-80 -94.5q-130 -122 -207 -97q-53 16 -68 92q-14 72 8 176.5t77 209t129 166.5q6 5 14 4.5t13 -6.5t4.5 -14t-6.5 -13q-67 -57 -119 -155t-73.5 -196t-8.5 -165q11 -53 42 -63q55 -17 168 89q32 30 64 70.5t61.5 90.5t53 92t50.5 100
t41 89t37 84q42 97 56.5 121.5t33.5 19.5q16 -4 19 -29t-5 -101q-31 -309 -88 -568q90 45 189 85q7 3 14.5 0t10.5 -10zM525 -349q103 201 175 497q-298 -161 -460 -354q-86 -102 -125 -202.5t-21 -176.5q10 -44 38 -67.5t69 -20.5q77 5 163 90.5t161 233.5z" />
    <glyph glyph-name="Z" unicode="Z" horiz-adv-x="799" 
d="M536 282q108 10 143 -68q43 -97 -44 -280q-40 -84 -99.5 -164.5t-127.5 -142.5q-161 -145 -311 -145q-74 0 -138 36q-32 18 -46 42t-5 41q18 33 79 0q7 -4 9.5 -11.5t-1.5 -14.5t-11.5 -9.5t-14.5 1.5q-12 7 -21 9q10 -13 29 -24q45 -25 94.5 -30t91 6t85.5 33.5t74.5 45
t59.5 49.5q88 80 158 187t99 204.5t5 150.5t-104 46q-72 -7 -223 -61q-33 -12 -46.5 -16.5t-28.5 -7.5t-21 0t-10 11q-8 13 4 28t49 45q144 117 313 298q46 51 79.5 97t51 81t24.5 64.5t4 49t-14 31.5q-19 24 -63 27t-118 -22.5t-160 -80.5q-92 -59 -143 -154t-33 -174
q2 -8 -2.5 -14.5t-12 -8.5t-14.5 2t-9 12q-21 92 34.5 197.5t158.5 171.5q134 85 240.5 104t151.5 -35q44 -53 5 -152.5t-152 -221.5q-171 -183 -316 -301l15 5q156 55 232 63z" />
    <glyph glyph-name="bracketleft" unicode="[" horiz-adv-x="334" 
d="M352 679.5q8 0.5 14 -5t6.5 -13.5t-5 -14t-13.5 -6q-9 0 -23 -1q-44 -1 -56.5 -7.5t-23.5 -38.5q-15 -44 -43 -172.5t-54 -266.5t-46 -259.5t-20 -154.5q9 -1 22.5 0t26.5 4t21 6t15 0t10.5 -10t0.5 -14.5t-11 -10.5q-31 -14 -75 -14q-21 0 -33 5q-10 4 -13 12t-1 39
t11 95q16 107 48 274q72 384 105 479q5 17 11.5 29.5t16 20t17 12t21 7t22 3t27.5 1.5q14 0 22 0.5z" />
    <glyph glyph-name="backslash" unicode="\" horiz-adv-x="429" 
d="M306 -83q1 -5 0.5 -10t-4 -9t-8.5 -6q-3 -1 -6 -1q-14 0 -18 12q-36 94 -94 264q-81 238 -153 428q-1 5 -0.5 10t4 9t7.5 6q8 3 15 -0.5t10 -10.5q72 -190 154 -429q57 -170 93 -263z" />
    <glyph glyph-name="bracketright" unicode="]" horiz-adv-x="369" 
d="M297 696q18 -17 21 -50.5t-5 -81.5q-31 -220 -159 -730q-10 -39 -28 -63t-47.5 -36.5t-75.5 -15.5h-2q-7 0 -12.5 5t-6.5 13t4.5 14t13.5 6q59 5 82.5 24t34.5 62q128 508 158 726q12 84 -4 99q-15 13 -88 -3q-8 -1 -14.5 3t-8 12t2.5 14.5t12 8.5q42 10 73.5 9.5
t48.5 -16.5z" />
    <glyph glyph-name="asciicircum" unicode="^" horiz-adv-x="323" 
d="M272 442q2 -8 -2 -15t-11.5 -9t-14.5 2.5t-9 11.5q-24 95 -36 118q-12 -1 -48 -39.5t-65 -87.5q-5 -10 -17 -10q-8 0 -13.5 6t-5.5 14q0 12 46 72q51 66 85 79q28 11 46 -8q16 -16 45 -134z" />
    <glyph glyph-name="underscore" unicode="_" horiz-adv-x="476" 
d="M406 -30q8 0 14 -5.5t6 -13.5q0 -3 -1 -6t-2.5 -5.5t-4 -4t-5.5 -2.5l-6 -2h-89q-227 1 -248 0q0 -1 -1 -1q-7 0 -13 5.5t-6 13.5t5 13.5t13 6.5q22 1 250 1h88z" />
    <glyph glyph-name="grave" unicode="`" horiz-adv-x="181" 
d="M129 461q3 -7 0.5 -14.5t-9.5 -11.5q-4 -2 -9 -2q-11 0 -17 11l-42 83q-4 7 -1.5 14.5t10 11t15 1t10.5 -9.5z" />
    <glyph glyph-name="a" unicode="a" horiz-adv-x="372" 
d="M419 222.5q7 -3.5 9.5 -11t-0.5 -14.5q-107 -221 -191 -221q-5 0 -11 1q-67 13 -83 180q-49 -66 -87 -108q-34 -36 -58 -25q-24 9 -23 52q0 36 16 86t47 97t67 59q53 19 98 -35q5 -6 4.5 -14t-6.5 -13t-14 -4.5t-13 6.5q-35 42 -71 16q-41 -29 -68.5 -104.5t-21.5 -107.5
q6 5 14 13q40 43 98 123q13 18 18 25q8 10 21 6.5t14 -17.5q2 -49 8 -87t12 -57.5t14 -32.5t12.5 -16.5t9.5 -3.5q14 -3 35.5 13.5t55 64t68.5 120.5q4 8 11.5 10.5t14.5 -1z" />
    <glyph glyph-name="a" unicode="&#xe5;" horiz-adv-x="372" 
d="M419 222.5q7 -3.5 9.5 -11t-0.5 -14.5q-107 -221 -191 -221q-5 0 -11 1q-67 13 -83 180q-49 -66 -87 -108q-34 -36 -58 -25q-24 9 -23 52q0 36 16 86t47 97t67 59q53 19 98 -35q5 -6 4.5 -14t-6.5 -13t-14 -4.5t-13 6.5q-35 42 -71 16q-41 -29 -68.5 -104.5t-21.5 -107.5
q6 5 14 13q40 43 98 123q13 18 18 25q8 10 21 6.5t14 -17.5q2 -49 8 -87t12 -57.5t14 -32.5t12.5 -16.5t9.5 -3.5q14 -3 35.5 13.5t55 64t68.5 120.5q4 8 11.5 10.5t14.5 -1z" />
    <glyph glyph-name="a" unicode="&#xe3;" horiz-adv-x="372" 
d="M419 222.5q7 -3.5 9.5 -11t-0.5 -14.5q-107 -221 -191 -221q-5 0 -11 1q-67 13 -83 180q-49 -66 -87 -108q-34 -36 -58 -25q-24 9 -23 52q0 36 16 86t47 97t67 59q53 19 98 -35q5 -6 4.5 -14t-6.5 -13t-14 -4.5t-13 6.5q-35 42 -71 16q-41 -29 -68.5 -104.5t-21.5 -107.5
q6 5 14 13q40 43 98 123q13 18 18 25q8 10 21 6.5t14 -17.5q2 -49 8 -87t12 -57.5t14 -32.5t12.5 -16.5t9.5 -3.5q14 -3 35.5 13.5t55 64t68.5 120.5q4 8 11.5 10.5t14.5 -1z" />
    <glyph glyph-name="a" unicode="&#xe2;" horiz-adv-x="372" 
d="M419 222.5q7 -3.5 9.5 -11t-0.5 -14.5q-107 -221 -191 -221q-5 0 -11 1q-67 13 -83 180q-49 -66 -87 -108q-34 -36 -58 -25q-24 9 -23 52q0 36 16 86t47 97t67 59q53 19 98 -35q5 -6 4.5 -14t-6.5 -13t-14 -4.5t-13 6.5q-35 42 -71 16q-41 -29 -68.5 -104.5t-21.5 -107.5
q6 5 14 13q40 43 98 123q13 18 18 25q8 10 21 6.5t14 -17.5q2 -49 8 -87t12 -57.5t14 -32.5t12.5 -16.5t9.5 -3.5q14 -3 35.5 13.5t55 64t68.5 120.5q4 8 11.5 10.5t14.5 -1z" />
    <glyph glyph-name="a" unicode="&#xe1;" horiz-adv-x="372" 
d="M419 222.5q7 -3.5 9.5 -11t-0.5 -14.5q-107 -221 -191 -221q-5 0 -11 1q-67 13 -83 180q-49 -66 -87 -108q-34 -36 -58 -25q-24 9 -23 52q0 36 16 86t47 97t67 59q53 19 98 -35q5 -6 4.5 -14t-6.5 -13t-14 -4.5t-13 6.5q-35 42 -71 16q-41 -29 -68.5 -104.5t-21.5 -107.5
q6 5 14 13q40 43 98 123q13 18 18 25q8 10 21 6.5t14 -17.5q2 -49 8 -87t12 -57.5t14 -32.5t12.5 -16.5t9.5 -3.5q14 -3 35.5 13.5t55 64t68.5 120.5q4 8 11.5 10.5t14.5 -1z" />
    <glyph glyph-name="a" unicode="&#xe0;" horiz-adv-x="372" 
d="M419 222.5q7 -3.5 9.5 -11t-0.5 -14.5q-107 -221 -191 -221q-5 0 -11 1q-67 13 -83 180q-49 -66 -87 -108q-34 -36 -58 -25q-24 9 -23 52q0 36 16 86t47 97t67 59q53 19 98 -35q5 -6 4.5 -14t-6.5 -13t-14 -4.5t-13 6.5q-35 42 -71 16q-41 -29 -68.5 -104.5t-21.5 -107.5
q6 5 14 13q40 43 98 123q13 18 18 25q8 10 21 6.5t14 -17.5q2 -49 8 -87t12 -57.5t14 -32.5t12.5 -16.5t9.5 -3.5q14 -3 35.5 13.5t55 64t68.5 120.5q4 8 11.5 10.5t14.5 -1z" />
    <glyph glyph-name="b" unicode="b" horiz-adv-x="376" 
d="M422 224q7 -4 9 -12t-3 -14q-40 -65 -95 -119.5t-113 -91t-104.5 -59t-93.5 -38.5q-14 -5 -22 8q-16 -40 -28 -79q-4 -13 -19 -13h-3q-7 1 -11.5 6.5t-4.5 12.5q1 23 48.5 238t95.5 420q0 3 1 6q17 72 28 116q34 138 78.5 235.5t76.5 103.5q17 3 26 -10q22 -29 -25 -154
t-147 -305q-54 -227 -102 -449q28 58 54 94q78 109 124 95q30 -9 31 -53q0 -21 -6.5 -47.5t-21.5 -58.5t-36 -61q156 92 237 223q4 7 11.5 8.5t14.5 -2.5zM255 889q-54 -80 -102 -261q87 176 102 261zM11 -73q36 13 67.5 38.5t52 55.5t33 58.5t17.5 53.5q7 35 0 45
q-4 0 -10.5 -3.5t-26.5 -23t-44 -53.5q-43 -60 -89 -171z" />
    <glyph glyph-name="c" unicode="c" horiz-adv-x="296" 
d="M330.5 227.5q6.5 -4.5 8.5 -12.5t-3 -14q-33 -51 -57.5 -86t-55.5 -74.5t-56.5 -63t-53.5 -39t-53 -15.5q-9 0 -18 2q-36 8 -55 42q-20 45 -17.5 98.5t21.5 105.5q20 55 50.5 85t57.5 21q6 -2 11 -5.5t12 -14t7 -27.5t-6 -44q-2 -8 -8.5 -12t-14.5 -2t-12 9t-2 14
q10 38 1 46q-4 0 -12.5 -6t-22.5 -26.5t-25 -51.5q-18 -47 -19.5 -95.5t13.5 -75.5q10 -19 29 -23q17 -4 38.5 5t46 32.5t44.5 46t46.5 60t40.5 58t38 57.5q4 6 12 8t14.5 -2.5z" />
    <glyph glyph-name="c" unicode="&#xe7;" horiz-adv-x="296" 
d="M330.5 227.5q6.5 -4.5 8.5 -12.5t-3 -14q-33 -51 -57.5 -86t-55.5 -74.5t-56.5 -63t-53.5 -39t-53 -15.5q-9 0 -18 2q-36 8 -55 42q-20 45 -17.5 98.5t21.5 105.5q20 55 50.5 85t57.5 21q6 -2 11 -5.5t12 -14t7 -27.5t-6 -44q-2 -8 -8.5 -12t-14.5 -2t-12 9t-2 14
q10 38 1 46q-4 0 -12.5 -6t-22.5 -26.5t-25 -51.5q-18 -47 -19.5 -95.5t13.5 -75.5q10 -19 29 -23q17 -4 38.5 5t46 32.5t44.5 46t46.5 60t40.5 58t38 57.5q4 6 12 8t14.5 -2.5z" />
    <glyph glyph-name="d" unicode="d" horiz-adv-x="313" 
d="M427 835q26 -26 -26 -184l-11 -33q-22 -67 -36 -107t-44 -112t-65 -138q-29 -138 -55 -294q-45 -267 -48 -362q8 3 16 0q7 -4 9.5 -11.5t-0.5 -14.5q-18 -38 -36 -38q-4 0 -8 1q-11 4 -15.5 14.5t-4 44t8.5 98.5q12 104 40 274q16 93 33 181q-31 -50 -66 -100
q-66 -96 -115 -69q-32 23 -31 81.5t29 118.5q33 70 78 103t80 22.5t40 -52.5q5 8 9 16q53 251 106.5 403.5t87.5 163.5q14 5 24 -6zM88 76q47 68 86 136q-15 5 -12 20q4 37 -13 42h-6q-21 0 -51.5 -27.5t-54.5 -78.5q-16 -33 -21.5 -67.5t-2.5 -56t11 -25.5q3 -2 9.5 0.5
t21.5 17t33 39.5zM364 663q20 61 29 104q-49 -103 -105 -321q28 68 65 183q7 22 11 34z" />
    <glyph glyph-name="e" unicode="e" horiz-adv-x="291" 
d="M338.5 223.5q6.5 -4.5 7.5 -12.5t-3 -14q-113 -158 -206 -224q-37 -26 -73 -26q-28 0 -49 15q-12 9 -21.5 24t-16.5 42t-2.5 71t22.5 100v1q28 91 68 144t72 54q23 1 30 -20q11 -29 -26 -82t-109 -114q-12 -39 -17 -72t-3.5 -52.5t7 -34t10 -20.5t9.5 -10q30 -22 77 12
q88 62 196 214q5 6 13 7.5t14.5 -3zM130 356q-35 -22 -69 -95q58 58 69 95z" />
    <glyph glyph-name="e" unicode="&#xeb;" horiz-adv-x="291" 
d="M338.5 223.5q6.5 -4.5 7.5 -12.5t-3 -14q-113 -158 -206 -224q-37 -26 -73 -26q-28 0 -49 15q-12 9 -21.5 24t-16.5 42t-2.5 71t22.5 100v1q28 91 68 144t72 54q23 1 30 -20q11 -29 -26 -82t-109 -114q-12 -39 -17 -72t-3.5 -52.5t7 -34t10 -20.5t9.5 -10q30 -22 77 12
q88 62 196 214q5 6 13 7.5t14.5 -3zM130 356q-35 -22 -69 -95q58 58 69 95z" />
    <glyph glyph-name="e" unicode="&#xea;" horiz-adv-x="291" 
d="M338.5 223.5q6.5 -4.5 7.5 -12.5t-3 -14q-113 -158 -206 -224q-37 -26 -73 -26q-28 0 -49 15q-12 9 -21.5 24t-16.5 42t-2.5 71t22.5 100v1q28 91 68 144t72 54q23 1 30 -20q11 -29 -26 -82t-109 -114q-12 -39 -17 -72t-3.5 -52.5t7 -34t10 -20.5t9.5 -10q30 -22 77 12
q88 62 196 214q5 6 13 7.5t14.5 -3zM130 356q-35 -22 -69 -95q58 58 69 95z" />
    <glyph glyph-name="e" unicode="&#xe9;" horiz-adv-x="291" 
d="M338.5 223.5q6.5 -4.5 7.5 -12.5t-3 -14q-113 -158 -206 -224q-37 -26 -73 -26q-28 0 -49 15q-12 9 -21.5 24t-16.5 42t-2.5 71t22.5 100v1q28 91 68 144t72 54q23 1 30 -20q11 -29 -26 -82t-109 -114q-12 -39 -17 -72t-3.5 -52.5t7 -34t10 -20.5t9.5 -10q30 -22 77 12
q88 62 196 214q5 6 13 7.5t14.5 -3zM130 356q-35 -22 -69 -95q58 58 69 95z" />
    <glyph glyph-name="e" unicode="&#xe8;" horiz-adv-x="291" 
d="M338.5 223.5q6.5 -4.5 7.5 -12.5t-3 -14q-113 -158 -206 -224q-37 -26 -73 -26q-28 0 -49 15q-12 9 -21.5 24t-16.5 42t-2.5 71t22.5 100v1q28 91 68 144t72 54q23 1 30 -20q11 -29 -26 -82t-109 -114q-12 -39 -17 -72t-3.5 -52.5t7 -34t10 -20.5t9.5 -10q30 -22 77 12
q88 62 196 214q5 6 13 7.5t14.5 -3zM130 356q-35 -22 -69 -95q58 58 69 95z" />
    <glyph glyph-name="f" unicode="f" horiz-adv-x="227" 
d="M203 265q8 1 14.5 -4t7.5 -13t-4 -14t-13 -7q-73 -10 -136 -16q-58 -239 -108 -481t-65 -346h3q7 -3 10.5 -10.5t0.5 -14.5q-6 -17 -9.5 -25.5t-10.5 -16.5t-15 -8q-3 0 -6 1q-15 4 -15.5 26.5t13.5 111.5q18 108 55 282q49 239 107 478q-34 -3 -80 -7h-2q-5 0 -9 2.5
t-6.5 6.5t-3.5 9q0 8 5 14t13 7q56 4 92 7q26 104 48 189q9 35 20.5 72.5t30.5 90t41 87t42 37.5q17 3 27 -12q24 -36 -24.5 -158t-130.5 -252q-1 -1 -1 -2q-5 -19 -12 -48q54 5 121 14zM218 670q-44 -66 -90 -236q80 150 90 236z" />
    <glyph glyph-name="g" unicode="g" horiz-adv-x="412" 
d="M458.5 221.5q4.5 -6.5 3 -14.5t-8.5 -12q-180 -117 -283 -205q-63 -380 -147 -578t-164 -220q-11 -3 -21 -3q-32 0 -55 28q-43 54 -31 173q14 128 87 262q107 193 295 358q14 85 26 178q-32 -48 -59 -84q-42 -55 -72 -46q-24 7 -28 44q-3 35 10.5 90.5t44.5 109.5t68 72
q51 26 99 -17q6 -6 6.5 -13.5t-5 -13.5t-13.5 -6.5t-14 4.5q-36 33 -73 0q-42 -38 -67 -120.5t-16 -110.5q11 7 29 30q64 84 103 153q8 13 23 8.5t13 -20.5q-14 -115 -30 -220q93 76 253 179q7 5 14.5 3t12 -8.5zM-152 -771q27 7 58.5 48t68.5 120t76.5 222t72.5 329
q-158 -146 -251 -315q-30 -54 -49.5 -108t-27.5 -98t-8 -81.5t7 -63.5t18 -41q15 -18 35 -12z" />
    <glyph glyph-name="h" unicode="h" horiz-adv-x="431" 
d="M473.5 229q6.5 -4 8.5 -12t-2 -15q-33 -53 -63 -94.5t-51.5 -67t-41.5 -43t-32 -25t-24 -10t-16.5 -2t-10.5 1.5q-47 12 -53 107q-1 21 -5 35.5t-7 19t-5 4.5h-1q-8 0 -22 -12.5t-34 -40.5t-42 -68t-48.5 -101t-51.5 -132q-4 -13 -18 -13h-4q-5 1 -8.5 4t-5.5 7.5t-1 8.5
q2 41 52.5 263.5t83 358t50.5 207.5q34 138 78.5 235.5t76.5 103.5q17 3 26 -10q22 -30 -25.5 -155t-147.5 -306q-77 -317 -119 -509q44 93 87 147.5t79 49.5q45 -6 50 -94q5 -67 24 -72q3 -1 8.5 0t22.5 12t37 32.5t54.5 67.5t74.5 111q4 6 12 8t14.5 -2zM269 893
q-55 -79 -103 -261q88 177 103 261z" />
    <glyph glyph-name="i" unicode="i" horiz-adv-x="253" 
d="M293 228q7 -4 8.5 -12t-2.5 -15q-28 -44 -67.5 -91.5t-89 -85.5t-83.5 -38q-12 0 -21 4q-67 29 -14 235q2 8 9 12t14.5 2t11.5 -9t2 -14q-12 -48 -17.5 -84.5t-5 -55.5t4 -31.5t6 -15t4.5 -3.5q26 -11 94.5 52t118.5 144q5 6 12.5 8t14.5 -2zM57 308q-29 2 -18 24
q10 18 26 24q25 8 30 -13q5 -20 -15 -30q-10 -5 -23 -5z" />
    <glyph glyph-name="i" unicode="&#xef;" horiz-adv-x="253" 
d="M293 228q7 -4 8.5 -12t-2.5 -15q-28 -44 -67.5 -91.5t-89 -85.5t-83.5 -38q-12 0 -21 4q-67 29 -14 235q2 8 9 12t14.5 2t11.5 -9t2 -14q-12 -48 -17.5 -84.5t-5 -55.5t4 -31.5t6 -15t4.5 -3.5q26 -11 94.5 52t118.5 144q5 6 12.5 8t14.5 -2zM57 308q-29 2 -18 24
q10 18 26 24q25 8 30 -13q5 -20 -15 -30q-10 -5 -23 -5z" />
    <glyph glyph-name="i" unicode="&#xee;" horiz-adv-x="253" 
d="M293 228q7 -4 8.5 -12t-2.5 -15q-28 -44 -67.5 -91.5t-89 -85.5t-83.5 -38q-12 0 -21 4q-67 29 -14 235q2 8 9 12t14.5 2t11.5 -9t2 -14q-12 -48 -17.5 -84.5t-5 -55.5t4 -31.5t6 -15t4.5 -3.5q26 -11 94.5 52t118.5 144q5 6 12.5 8t14.5 -2zM57 308q-29 2 -18 24
q10 18 26 24q25 8 30 -13q5 -20 -15 -30q-10 -5 -23 -5z" />
    <glyph glyph-name="i" unicode="&#xed;" horiz-adv-x="253" 
d="M293 228q7 -4 8.5 -12t-2.5 -15q-28 -44 -67.5 -91.5t-89 -85.5t-83.5 -38q-12 0 -21 4q-67 29 -14 235q2 8 9 12t14.5 2t11.5 -9t2 -14q-12 -48 -17.5 -84.5t-5 -55.5t4 -31.5t6 -15t4.5 -3.5q26 -11 94.5 52t118.5 144q5 6 12.5 8t14.5 -2zM57 308q-29 2 -18 24
q10 18 26 24q25 8 30 -13q5 -20 -15 -30q-10 -5 -23 -5z" />
    <glyph glyph-name="i" unicode="&#xec;" horiz-adv-x="253" 
d="M293 228q7 -4 8.5 -12t-2.5 -15q-28 -44 -67.5 -91.5t-89 -85.5t-83.5 -38q-12 0 -21 4q-67 29 -14 235q2 8 9 12t14.5 2t11.5 -9t2 -14q-12 -48 -17.5 -84.5t-5 -55.5t4 -31.5t6 -15t4.5 -3.5q26 -11 94.5 52t118.5 144q5 6 12.5 8t14.5 -2zM57 308q-29 2 -18 24
q10 18 26 24q25 8 30 -13q5 -20 -15 -30q-10 -5 -23 -5z" />
    <glyph glyph-name="j" unicode="j" horiz-adv-x="268" 
d="M314.5 218.5q4.5 -6.5 2.5 -14.5t-8 -12q-177 -115 -290 -229q-59 -352 -130 -573q-82 -259 -160 -281q-8 -2 -15 -2q-23 0 -40 21q-28 35 -30.5 118.5t26 196t83.5 218.5q94 181 230 321q23 136 44 288q1 7 7 12t14 4t13 -7.5t4 -14.5q-17 -124 -35 -237q103 96 258 197
q6 4 14 2.5t12.5 -8zM-147 -598q63 197 118 510q-107 -120 -184 -269q-43 -83 -69 -168.5t-32 -149t-1 -109.5t19 -64q7 -8 14 -6q5 2 11 6t20 20.5t28 41.5t34.5 74.5t41.5 113.5zM53 416q-29 1 -18 22q9 18 27 24q24 8 29 -12t-15 -30q-10 -5 -23 -4z" />
    <glyph glyph-name="k" unicode="k" horiz-adv-x="390" 
d="M430.5 225q6.5 -4 8.5 -12t-2 -14q-56 -91 -154 -175.5t-166 -84.5q-8 0 -15 1q-48 9 -59 69q-2 9 3.5 16.5t23.5 22.5q37 32 54 54q12 16 20 33.5t10 29t0 18.5q-23 -9 -60 -67q-27 -42 -54.5 -105t-41.5 -105t-37 -115l-5 -14q-4 -13 -18 -13h-3q-5 1 -8.5 3.5t-5.5 7
t-2 9.5q0 22 51.5 254t101.5 446q1 2 1 5q18 75 28 117q34 138 78.5 235t77.5 104q16 3 26 -11q11 -13 3.5 -54t-29.5 -100t-60 -137.5t-87 -167.5q-49 -207 -98 -430q24 53 49 92q57 88 98 85q21 -2 29 -22q10 -21 0 -55.5t-34 -66.5q-19 -24 -59 -59q-9 -8 -12 -11
q7 -26 26 -30q45 -8 139.5 67t155.5 174q4 7 12 8.5t14.5 -2.5zM249 889q-54 -79 -102 -261q87 177 102 261z" />
    <glyph glyph-name="l" unicode="l" horiz-adv-x="152" 
d="M294 937q21 -31 -20.5 -146.5t-134.5 -263.5l-2 -2q-63 -252 -120.5 -525.5t-73.5 -389.5h2q8 -3 11.5 -10t0.5 -15q-6 -17 -9.5 -25.5t-10.5 -16.5t-15 -8q-3 0 -7 1q-14 5 -15 27.5t14 110.5q18 108 54 282q83 396 165 706q7 26 15 54.5t23 71.5t29.5 75.5t32.5 58
t34 27.5q17 3 27 -12zM172 659q80 151 90 237q-44 -66 -90 -237z" />
    <glyph glyph-name="m" unicode="m" horiz-adv-x="521" 
d="M564 224q6 -5 6.5 -13t-4.5 -14q-127 -149 -201 -121q-53 20 -57 127q-14 -26 -44 -87q-17 -37 -23 -47q-26 -50 -56 -42q-41 10 -40 115q0 20 1 47q-66 -94 -135 -226q-12 -23 -26 -23q-5 0 -9.5 2.5t-7 4.5t-5 11t-1 23t6.5 41t15 65q32 128 77 229q3 8 10.5 11
t15 -0.5t10 -11t-0.5 -14.5q-50 -113 -82 -251q60 106 124 195q14 20 31 14q12 -4 14 -16.5t1 -49.5q-1 -31 -1 -51q0 -53 11 -75q6 6 14 20q5 10 22 45q41 86 59 112.5t37 22.5q21 -5 21 -44q-1 -98 32 -111q20 -7 61 18.5t97 91.5q5 6 13 6.5t14 -4.5z" />
    <glyph glyph-name="n" unicode="n" horiz-adv-x="357" 
d="M403 223q7 -4 9 -11.5t-2 -14.5q-34 -60 -59 -95t-51 -55t-51 -17q-50 6 -79 108q-21 69 -36 69q-3 1 -8.5 -2.5t-17.5 -18t-26.5 -39.5t-38 -74t-50.5 -116q-5 -12 -18 -12q-2 0 -4 1q-17 4 -15 21q10 82 75 305q7 23 10 35q3 8 10 11.5t14.5 1.5t11.5 -9t1 -15l-10 -35
q-22 -77 -34 -120q32 60 56 83t46 22q26 -1 41.5 -27t29.5 -71q22 -77 47 -80q12 -2 29.5 13.5t37.5 45t30.5 46.5t24.5 43q4 7 12 9t15 -2z" />
    <glyph glyph-name="n" unicode="&#xf1;" horiz-adv-x="357" 
d="M403 223q7 -4 9 -11.5t-2 -14.5q-34 -60 -59 -95t-51 -55t-51 -17q-50 6 -79 108q-21 69 -36 69q-3 1 -8.5 -2.5t-17.5 -18t-26.5 -39.5t-38 -74t-50.5 -116q-5 -12 -18 -12q-2 0 -4 1q-17 4 -15 21q10 82 75 305q7 23 10 35q3 8 10 11.5t14.5 1.5t11.5 -9t1 -15l-10 -35
q-22 -77 -34 -120q32 60 56 83t46 22q26 -1 41.5 -27t29.5 -71q22 -77 47 -80q12 -2 29.5 13.5t37.5 45t30.5 46.5t24.5 43q4 7 12 9t15 -2z" />
    <glyph glyph-name="o" unicode="o" horiz-adv-x="320" 
d="M362.5 218q6.5 -5 7.5 -13t-4 -14q-41 -53 -98 -83t-107 -19q-14 -34 -39 -53.5t-52 -19.5h-1q-27 1 -47.5 18.5t-28.5 48.5q-13 49 4.5 93.5t50.5 65.5q7 5 16 2q9 22 25.5 34t34.5 9q10 -2 18.5 -8.5t17 -20.5t12.5 -43t2 -69q-1 -10 -3 -20q38 -8 84.5 19t79.5 70
q5 6 13 7t14.5 -4zM70 55q14 0 29.5 13t25.5 35q-65 36 -68 98q-20 -19 -27.5 -51t0.5 -56q11 -39 40 -39zM135 148q2 24 0.5 41.5t-3.5 28.5t-5 18t-5.5 10t-3.5 3h-1q-4 0 -10 -6.5t-9 -17.5q-6 -21 2 -43t35 -40v6z" />
    <glyph glyph-name="o" unicode="&#xf8;" horiz-adv-x="320" 
d="M362.5 218q6.5 -5 7.5 -13t-4 -14q-41 -53 -98 -83t-107 -19q-14 -34 -39 -53.5t-52 -19.5h-1q-27 1 -47.5 18.5t-28.5 48.5q-13 49 4.5 93.5t50.5 65.5q7 5 16 2q9 22 25.5 34t34.5 9q10 -2 18.5 -8.5t17 -20.5t12.5 -43t2 -69q-1 -10 -3 -20q38 -8 84.5 19t79.5 70
q5 6 13 7t14.5 -4zM70 55q14 0 29.5 13t25.5 35q-65 36 -68 98q-20 -19 -27.5 -51t0.5 -56q11 -39 40 -39zM135 148q2 24 0.5 41.5t-3.5 28.5t-5 18t-5.5 10t-3.5 3h-1q-4 0 -10 -6.5t-9 -17.5q-6 -21 2 -43t35 -40v6z" />
    <glyph glyph-name="o" unicode="&#xf5;" horiz-adv-x="320" 
d="M362.5 218q6.5 -5 7.5 -13t-4 -14q-41 -53 -98 -83t-107 -19q-14 -34 -39 -53.5t-52 -19.5h-1q-27 1 -47.5 18.5t-28.5 48.5q-13 49 4.5 93.5t50.5 65.5q7 5 16 2q9 22 25.5 34t34.5 9q10 -2 18.5 -8.5t17 -20.5t12.5 -43t2 -69q-1 -10 -3 -20q38 -8 84.5 19t79.5 70
q5 6 13 7t14.5 -4zM70 55q14 0 29.5 13t25.5 35q-65 36 -68 98q-20 -19 -27.5 -51t0.5 -56q11 -39 40 -39zM135 148q2 24 0.5 41.5t-3.5 28.5t-5 18t-5.5 10t-3.5 3h-1q-4 0 -10 -6.5t-9 -17.5q-6 -21 2 -43t35 -40v6z" />
    <glyph glyph-name="o" unicode="&#xf4;" horiz-adv-x="320" 
d="M362.5 218q6.5 -5 7.5 -13t-4 -14q-41 -53 -98 -83t-107 -19q-14 -34 -39 -53.5t-52 -19.5h-1q-27 1 -47.5 18.5t-28.5 48.5q-13 49 4.5 93.5t50.5 65.5q7 5 16 2q9 22 25.5 34t34.5 9q10 -2 18.5 -8.5t17 -20.5t12.5 -43t2 -69q-1 -10 -3 -20q38 -8 84.5 19t79.5 70
q5 6 13 7t14.5 -4zM70 55q14 0 29.5 13t25.5 35q-65 36 -68 98q-20 -19 -27.5 -51t0.5 -56q11 -39 40 -39zM135 148q2 24 0.5 41.5t-3.5 28.5t-5 18t-5.5 10t-3.5 3h-1q-4 0 -10 -6.5t-9 -17.5q-6 -21 2 -43t35 -40v6z" />
    <glyph glyph-name="o" unicode="&#xf3;" horiz-adv-x="320" 
d="M362.5 218q6.5 -5 7.5 -13t-4 -14q-41 -53 -98 -83t-107 -19q-14 -34 -39 -53.5t-52 -19.5h-1q-27 1 -47.5 18.5t-28.5 48.5q-13 49 4.5 93.5t50.5 65.5q7 5 16 2q9 22 25.5 34t34.5 9q10 -2 18.5 -8.5t17 -20.5t12.5 -43t2 -69q-1 -10 -3 -20q38 -8 84.5 19t79.5 70
q5 6 13 7t14.5 -4zM70 55q14 0 29.5 13t25.5 35q-65 36 -68 98q-20 -19 -27.5 -51t0.5 -56q11 -39 40 -39zM135 148q2 24 0.5 41.5t-3.5 28.5t-5 18t-5.5 10t-3.5 3h-1q-4 0 -10 -6.5t-9 -17.5q-6 -21 2 -43t35 -40v6z" />
    <glyph glyph-name="o" unicode="&#xf2;" horiz-adv-x="320" 
d="M362.5 218q6.5 -5 7.5 -13t-4 -14q-41 -53 -98 -83t-107 -19q-14 -34 -39 -53.5t-52 -19.5h-1q-27 1 -47.5 18.5t-28.5 48.5q-13 49 4.5 93.5t50.5 65.5q7 5 16 2q9 22 25.5 34t34.5 9q10 -2 18.5 -8.5t17 -20.5t12.5 -43t2 -69q-1 -10 -3 -20q38 -8 84.5 19t79.5 70
q5 6 13 7t14.5 -4zM70 55q14 0 29.5 13t25.5 35q-65 36 -68 98q-20 -19 -27.5 -51t0.5 -56q11 -39 40 -39zM135 148q2 24 0.5 41.5t-3.5 28.5t-5 18t-5.5 10t-3.5 3h-1q-4 0 -10 -6.5t-9 -17.5q-6 -21 2 -43t35 -40v6z" />
    <glyph glyph-name="p" unicode="p" horiz-adv-x="302" 
d="M214 371q30 -9 40 -47.5t-3 -89.5q-24 -88 -118 -163q-39 -32 -86 -56q-36 -147 -80.5 -365.5t-65.5 -345.5q-3 -16 -19 -16h-3q-5 1 -9 4t-6 8t-1 10q26 175 115 676q-12 -4 -24 -7q-8 -3 -15 1t-9 12t2 15t12 9q20 5 41 14q7 35 19 104q52 292 53 305q0 8 5.5 13.5
t12.5 5.5q8 1 14 -4.5t7 -13.5q0 -8 -47 -272q15 42 30.5 76t29 56t27.5 37t25 22.5t21.5 11t18 3t13.5 -2.5zM214 244q9 39 4.5 63t-15.5 27q-1 1 -3 1q-6 0 -13.5 -4.5t-19.5 -17t-24.5 -32t-28 -53.5t-30.5 -78q-10 -30 -24 -84q57 35 98.5 81t55.5 97z" />
    <glyph glyph-name="q" unicode="q" horiz-adv-x="315" 
d="M349 217.5q7 -3.5 10 -11t-1 -14.5q-26 -57 -149 -452q-81 -259 -114 -357q-26 -79 -42 -119q-12 -30 -20.5 -42.5t-20.5 -12.5h-5q-15 4 -17.5 25t2.5 47q4 31 57.5 353.5t84.5 492.5q-36 -48 -68 -83q-44 -47 -75 -26q-15 10 -19 34t1.5 52.5t18.5 57.5q29 65 84 103
t127 19q8 -2 12 -8.5t2 -14.5q-1 -5 -4.5 -9t-8.5 -5t-10 0q-24 8 -46 4t-38.5 -11t-31 -20.5t-23 -25t-16.5 -24.5q-15 -25 -23 -52.5t-7.5 -43t3.5 -24.5q9 3 26 21q38 41 95 119q15 20 20 28q10 12 23.5 5.5t10.5 -21.5q-44 -223 -147 -861q36 103 132 410
q124 398 151 457q4 7 11.5 10t14.5 -0.5z" />
    <glyph glyph-name="r" unicode="r" horiz-adv-x="399" 
d="M439 226.5q7 -3.5 10 -11t-1 -14.5q-27 -58 -61 -119t-74.5 -123.5t-80.5 -102t-68 -39.5q-7 0 -13 3q-41 16 -26 124q14 101 74 286q-1 0 -1.5 -0.5t-1.5 -0.5q-22 -15 -36.5 -23t-39 -18t-46.5 -9t-41 14q-38 27 -39 75t36 105q23 36 55.5 63t55.5 12q14 -8 16.5 -26
t-17.5 -69.5t-67 -134.5q31 -4 102 43q13 9 19.5 12.5t15 7.5t14.5 3t12 -5q15 -12 5 -42q-100 -310 -79 -376l3 -6q8 -1 24.5 13t41 44t53 72t63 103t66.5 130q4 8 11.5 10.5t14.5 -1zM36 295q-9 -35 4 -56q73 127 78 172q-12 -7 -27.5 -23t-32 -41.5t-22.5 -51.5z" />
    <glyph glyph-name="s" unicode="s" horiz-adv-x="403" 
d="M445 229.5q6 -5.5 7 -13.5t-5 -14q-194 -226 -222 -261q-17 -22 -33 -43q14 -57 2 -110t-34 -91t-52 -62q-28 -24 -52 -24q-15 0 -25 10q-53 51 119 285q-11 38 -35 74q-50 75 -74 125t-22 91q2 40 21.5 72t52.5 52q28 17 59 20t57 -9q7 -4 9.5 -11.5t-1 -14.5t-11 -9.5
t-14.5 0.5q-36 17 -79 -9q-52 -31 -55 -93q-2 -33 21 -78.5t68 -113.5q19 -29 31 -59q8 10 17 22q28 35 223 262q5 6 13 7t14 -4.5zM120 -294q44 67 39 147q-42 -60 -67.5 -107t-31 -67.5t-3.5 -28.5q9 1 27 15.5t36 40.5z" />
    <glyph glyph-name="t" unicode="t" horiz-adv-x="133" 
d="M844 590q5 -6 4 -14t-8 -13q-12 -8 -23 1q-48 17 -674 3q-65 -273 -132 -592q-80 -385 -97 -529q2 0 4 -1q8 -2 11 -9.5t0 -14.5q-5 -16 -8.5 -23.5t-10.5 -15t-15 -7.5q-3 0 -7 1q-13 4 -15.5 21t2.5 46q4 42 18 121q25 150 75 390q67 324 135 612q-68 -1 -169 -4
q-160 -4 -188 -4q-8 0 -13.5 5.5t-5.5 13.5q0 5 2.5 9.5t7 7t9.5 2.5q28 0 187 5q99 2 180 4q32 132 57 224q2 8 9 12t14.5 2t11.5 -9t2 -15q-24 -89 -55 -213q300 8 453 6t192.5 -6.5t46.5 -15.5z" />
    <glyph glyph-name="u" unicode="u" horiz-adv-x="358" 
d="M398.5 216q6.5 -4 8.5 -12t-2 -14q-12 -19 -26 -40.5t-41.5 -58.5t-52.5 -64.5t-54 -48.5t-50 -21q-8 0 -14 3q-48 18 -27 153q-33 -45 -60 -68q-39 -33 -68 -8q-27 22 -24.5 78t32.5 108q4 7 12 9t15 -2t9 -11.5t-2 -14.5q-17 -28 -23.5 -59t-4 -51.5t9.5 -26.5
q5 -5 19 7q26 22 65 79l10.5 13.5t8.5 11t8 8.5t7 4.5t8 2t9 -2.5q13 -5 14 -22.5t-5 -45.5q-11 -55 -8.5 -84t4.5 -35.5t5 -6.5q3 -2 10.5 1.5t18 11.5t23.5 20.5t29.5 30.5t33.5 39.5t37 50t39 60.5q4 7 12 8.5t14.5 -2.5z" />
    <glyph glyph-name="u" unicode="&#xfb;" horiz-adv-x="358" 
d="M398.5 216q6.5 -4 8.5 -12t-2 -14q-12 -19 -26 -40.5t-41.5 -58.5t-52.5 -64.5t-54 -48.5t-50 -21q-8 0 -14 3q-48 18 -27 153q-33 -45 -60 -68q-39 -33 -68 -8q-27 22 -24.5 78t32.5 108q4 7 12 9t15 -2t9 -11.5t-2 -14.5q-17 -28 -23.5 -59t-4 -51.5t9.5 -26.5
q5 -5 19 7q26 22 65 79l10.5 13.5t8.5 11t8 8.5t7 4.5t8 2t9 -2.5q13 -5 14 -22.5t-5 -45.5q-11 -55 -8.5 -84t4.5 -35.5t5 -6.5q3 -2 10.5 1.5t18 11.5t23.5 20.5t29.5 30.5t33.5 39.5t37 50t39 60.5q4 7 12 8.5t14.5 -2.5z" />
    <glyph glyph-name="u" unicode="&#xfa;" horiz-adv-x="358" 
d="M398.5 216q6.5 -4 8.5 -12t-2 -14q-12 -19 -26 -40.5t-41.5 -58.5t-52.5 -64.5t-54 -48.5t-50 -21q-8 0 -14 3q-48 18 -27 153q-33 -45 -60 -68q-39 -33 -68 -8q-27 22 -24.5 78t32.5 108q4 7 12 9t15 -2t9 -11.5t-2 -14.5q-17 -28 -23.5 -59t-4 -51.5t9.5 -26.5
q5 -5 19 7q26 22 65 79l10.5 13.5t8.5 11t8 8.5t7 4.5t8 2t9 -2.5q13 -5 14 -22.5t-5 -45.5q-11 -55 -8.5 -84t4.5 -35.5t5 -6.5q3 -2 10.5 1.5t18 11.5t23.5 20.5t29.5 30.5t33.5 39.5t37 50t39 60.5q4 7 12 8.5t14.5 -2.5z" />
    <glyph glyph-name="u" unicode="&#xf9;" horiz-adv-x="358" 
d="M398.5 216q6.5 -4 8.5 -12t-2 -14q-12 -19 -26 -40.5t-41.5 -58.5t-52.5 -64.5t-54 -48.5t-50 -21q-8 0 -14 3q-48 18 -27 153q-33 -45 -60 -68q-39 -33 -68 -8q-27 22 -24.5 78t32.5 108q4 7 12 9t15 -2t9 -11.5t-2 -14.5q-17 -28 -23.5 -59t-4 -51.5t9.5 -26.5
q5 -5 19 7q26 22 65 79l10.5 13.5t8.5 11t8 8.5t7 4.5t8 2t9 -2.5q13 -5 14 -22.5t-5 -45.5q-11 -55 -8.5 -84t4.5 -35.5t5 -6.5q3 -2 10.5 1.5t18 11.5t23.5 20.5t29.5 30.5t33.5 39.5t37 50t39 60.5q4 7 12 8.5t14.5 -2.5z" />
    <glyph glyph-name="v" unicode="v" horiz-adv-x="472" 
d="M502.5 218q6.5 -5 7 -13t-4.5 -14q-38 -44 -87 -63.5t-93 -7.5q-51 13 -79 63q-25 -87 -76 -171q-34 -57 -69 -94.5t-63 -46.5q-10 -3 -19 -3q-18 0 -30 12q-58 59 58 406q2 7 9.5 10.5t15 1t11 -9.5t0.5 -15q-29 -88 -47 -157.5t-23.5 -106t-4.5 -61.5t3 -31.5t5 -8.5
q3 -3 10 0q28 9 70 63t79 133.5t47 150.5q1 7 6.5 11.5t12.5 5.5q16 0 19 -16q16 -84 75 -99q33 -9 71.5 7t68.5 52q6 6 13.5 6.5t14 -4.5z" />
    <glyph glyph-name="w" unicode="w" horiz-adv-x="569" 
d="M612.5 225.5q5.5 -5.5 6 -13.5t-5.5 -14q-47 -48 -95.5 -67t-89.5 -7q-47 14 -73 64q-15 -56 -34 -107q-29 -74 -50 -99t-40 -26q-36 -1 -50 68q-3 17 -5 40q-61 -93 -91 -121q-23 -22 -44 -22q-12 0 -22 7q-38 24 -30.5 127.5t55.5 238.5q3 7 10 10.5t14.5 1t11 -10
t0.5 -14.5q-33 -92 -45.5 -168t-9 -111t14.5 -42q4 -3 19 11q31 29 117 164q7 12 21 8t14 -19q0 -52 8 -93q5 -26 12 -36q20 13 55 103.5t45 164.5q1 7 6.5 11.5t12.5 4.5q16 1 19 -15q17 -87 70 -103q30 -9 69 8t78 56q5 6 13 6t13.5 -5.5z" />
    <glyph glyph-name="x" unicode="x" horiz-adv-x="270" 
d="M255 306.5q4 -6.5 2 -14.5t-9 -12q-67 -41 -153 -157q19 -41 39 -69t37 -34q12 -4 23 13q4 7 12 8.5t14.5 -3t8 -12.5t-2.5 -14q-21 -31 -50 -31q-8 0 -16 2q-44 15 -90 104q-60 -85 -121 -199q-6 -10 -17 -10q-5 0 -9 3q-7 3 -9.5 11t1.5 15q69 127 136 221
q-42 96 -40 145q0 8 6 13.5t14 5t13.5 -6.5t5.5 -14q-2 -32 27 -107q82 108 151 149q7 4 15 2t12 -8.5z" />
    <glyph glyph-name="y" unicode="y" horiz-adv-x="443" 
d="M489.5 220.5q4.5 -6.5 2.5 -14.5t-8 -12q-177 -115 -290 -229q-59 -353 -129 -573q-83 -259 -161 -281q-7 -2 -15 -2q-23 0 -40 20q-28 36 -30.5 119t26 196t82.5 218q95 181 232 322q15 94 30 197q-31 -47 -58 -79q-44 -54 -84 -30q-33 20 -35 83.5t29 138.5
q3 7 10.5 10t14.5 0t10.5 -10t0.5 -15q-27 -73 -26.5 -119t16.5 -55q11 -7 34 21q50 60 103 152q8 14 23 8.5t13 -20.5q-17 -125 -35 -237q103 96 258 197q6 4 14 2.5t12.5 -8zM28 -597q64 200 119 511q-108 -120 -186 -270q-43 -82 -68.5 -167.5t-31.5 -149.5t-1 -110
t19 -63q7 -8 14 -6q5 1 11 5t20 20.5t28 42t35 74.5t41 113z" />
    <glyph glyph-name="y" unicode="&#xff;" horiz-adv-x="443" 
d="M489.5 220.5q4.5 -6.5 2.5 -14.5t-8 -12q-177 -115 -290 -229q-59 -353 -129 -573q-83 -259 -161 -281q-7 -2 -15 -2q-23 0 -40 20q-28 36 -30.5 119t26 196t82.5 218q95 181 232 322q15 94 30 197q-31 -47 -58 -79q-44 -54 -84 -30q-33 20 -35 83.5t29 138.5
q3 7 10.5 10t14.5 0t10.5 -10t0.5 -15q-27 -73 -26.5 -119t16.5 -55q11 -7 34 21q50 60 103 152q8 14 23 8.5t13 -20.5q-17 -125 -35 -237q103 96 258 197q6 4 14 2.5t12.5 -8zM28 -597q64 200 119 511q-108 -120 -186 -270q-43 -82 -68.5 -167.5t-31.5 -149.5t-1 -110
t19 -63q7 -8 14 -6q5 1 11 5t20 20.5t28 42t35 74.5t41 113z" />
    <glyph glyph-name="y" unicode="&#xfd;" horiz-adv-x="443" 
d="M489.5 220.5q4.5 -6.5 2.5 -14.5t-8 -12q-177 -115 -290 -229q-59 -353 -129 -573q-83 -259 -161 -281q-7 -2 -15 -2q-23 0 -40 20q-28 36 -30.5 119t26 196t82.5 218q95 181 232 322q15 94 30 197q-31 -47 -58 -79q-44 -54 -84 -30q-33 20 -35 83.5t29 138.5
q3 7 10.5 10t14.5 0t10.5 -10t0.5 -15q-27 -73 -26.5 -119t16.5 -55q11 -7 34 21q50 60 103 152q8 14 23 8.5t13 -20.5q-17 -125 -35 -237q103 96 258 197q6 4 14 2.5t12.5 -8zM28 -597q64 200 119 511q-108 -120 -186 -270q-43 -82 -68.5 -167.5t-31.5 -149.5t-1 -110
t19 -63q7 -8 14 -6q5 1 11 5t20 20.5t28 42t35 74.5t41 113z" />
    <glyph glyph-name="z" unicode="z" horiz-adv-x="556" 
d="M607 224q5 -6 4.5 -14t-6.5 -13q-132 -113 -236 -211q-30 -185 -128 -386q-71 -144 -175.5 -235t-179.5 -91h-2q-46 1 -62 37q-21 47 24.5 136.5t150.5 210.5q156 178 335 347q19 122 -10 161q-12 16 -34 12q-49 -7 -104 -43l-10.5 -6t-9.5 -4.5t-10.5 -1.5t-9.5 5
q-5 5 -7 9t0.5 14t6.5 19.5t15 33.5q11 26 18 43q16 36 25.5 65t12 44.5t2.5 26.5t-1.5 13.5t-1.5 3.5q-3 1 -11 -2q-32 -12 -74.5 -65t-62.5 -117q-2 -8 -9 -11.5t-15 -1t-11.5 9.5t-1.5 15q22 68 74.5 134.5t98.5 75.5q27 5 42 -14q33 -42 -32 -192q-7 -17 -18 -43
q-1 -1 -1 -2q-1 -1 -1 -2q44 25 90 31q46 7 71 -28q31 -41 23 -142q91 83 204 180q6 5 14 4.5t13 -6.5zM206 -383q79 161 114 324q-155 -149 -294 -309q-102 -117 -142 -196t-27 -109q6 -14 28 -14q27 -1 66.5 19t83.5 56.5t90 96.5t81 132z" />
    <glyph glyph-name="braceleft" unicode="{" horiz-adv-x="370" 
d="M400 755q8 -1 13.5 -7t4.5 -14t-7 -13t-14 -5q-66 5 -90 -20q-38 -40 -19 -199q10 -86 -37.5 -192t-116.5 -169q-1 -6 -1 -30q-2 -66 -10 -108q-3 -17 -10 -53q-23 -117 -24 -157q-2 -30 11 -38q18 -12 63 10q7 4 14.5 1.5t11 -9.5t1 -14.5t-9.5 -11.5q-37 -18 -65 -18
q-20 0 -35 9q-32 21 -30 72q2 43 25 163q2 11 3.5 18.5t3.5 17t3 17.5q7 39 9 102q1 27 3 38t9 17q62 55 107.5 154t36.5 177q-11 93 -4 147.5t33 82.5q37 38 121 32z" />
    <glyph glyph-name="verticalbar" unicode="|" horiz-adv-x="312" 
d="M317.5 665.5q7.5 -2.5 11 -9.5t1.5 -14q-73 -228 -153 -510q-55 -193 -89 -301q-5 -13 -19 -13q-3 0 -6 1q-7 2 -11 9.5t-1 14.5q34 107 89 299q80 283 153 511q2 8 9.5 11.5t15 1z" />
    <glyph glyph-name="braceright" unicode="}" horiz-adv-x="487" 
d="M303 381q-32 -62 -34 -69q-2 -8 2 -33q4 -31 2 -49q-5 -45 -27.5 -129.5t-55.5 -159.5q-47 -108 -102 -164t-115 -56h-6q-8 0 -13 6t-5 14t6 13.5t14 4.5h4q41 0 81.5 39t70.5 96.5t54.5 124.5t38 123t17.5 92q1 13 -2 40q-5 32 -1 47q2 10 37 78q70 135 98 205
q20 49 26.5 81.5t5 39t-3.5 8.5q-2 1 -6.5 1.5t-26.5 -7.5t-54 -29q-7 -4 -15 -2.5t-12 8.5t-2.5 14.5t8.5 11.5q98 64 134 31q11 -10 14.5 -27t-1 -42t-14 -55t-27.5 -71t-39 -84.5t-51 -100.5z" />
    <glyph glyph-name="nonbreakingspace" unicode="&#xa0;" horiz-adv-x="307" 
 />
    <glyph glyph-name="exclamdown" unicode="&#xa1;" horiz-adv-x="293" 
d="M204 288q5 -2 8.5 -5.5t5 -8.5t0.5 -10q-19 -76 -46 -199q-42 -197 -84 -345q-4 -14 -19 -14q-2 0 -5 1q-8 2 -11.5 9t-1.5 15q42 147 84 342q27 124 46 201q1 7 8 11.5t15 2.5zM229 378q12 -1 14 -9.5t-4 -17.5t-15 -12q-22 -7 -27 11t14 26q7 3 18 2z" />
    <glyph glyph-name="sterling" unicode="&#xa3;" horiz-adv-x="458" 
d="M403 14.5q5 -6.5 4.5 -14t-6.5 -13.5q-56 -47 -138 -47q-42 0 -79.5 13.5t-60.5 37.5q-6 6 -13 10q-9 -7 -18 -9q-18 -4 -32 8q-13 10 -9 25q3 16 22 21q13 4 28 0q27 34 53 102q8 19 18 46h-10q-30 0 -59 14q-7 4 -9.5 11.5t1 14.5t11 9.5t15.5 -0.5q30 -16 66 -8
q8 24 15 43q50 139 75 188t53 49q25 0 39 -36q2 -7 -1 -14.5t-10.5 -10.5t-15 0.5t-9.5 10.5q-2 6 -5 9q-21 -19 -89 -209q-1 -2 -2.5 -6t-2.5 -7q16 7 26 10.5t25 7t29 2t28 -7.5q7 -4 10 -11t-0.5 -14.5t-11 -10.5t-14.5 1q-7 3 -14 3.5t-13.5 0t-16 -3t-16.5 -5.5t-19 -8
q-19 -8 -31 -12q-15 -41 -26 -70q-26 -68 -53 -104q7 -6 13 -12q21 -22 60.5 -32.5t86 -3.5t79.5 35q6 5 14 4.5t13 -7z" />
    <glyph glyph-name="copyright" unicode="&#xa9;" horiz-adv-x="624" 
d="M553 403q29 -59 18 -141.5t-58 -155.5q-34 -51 -80.5 -87.5t-103.5 -55.5t-119 -19h-23q-69 4 -104.5 44t-32.5 108q3 46 24.5 100t58.5 105t83 92.5t104 65t114 20.5q82 -4 119 -76zM487 124q42 65 52.5 139t-15.5 125q-28 56 -91 60h-11q-62 0 -124.5 -36t-108 -89.5
t-75 -115t-32.5 -113.5q-1 -21 2.5 -39.5t14.5 -36.5t34 -29t56 -13q60 -3 111.5 10.5t87.5 38.5t58.5 48.5t40.5 50.5zM354 142q12 10 22.5 -2.5t-2.5 -22.5q-62 -52 -103 -52q-16 0 -28 9q-18 12 -21.5 39.5t7.5 63.5q18 52 55 103q42 56 71 50q28 -6 21 -59q-1 -7 -6 -11
t-11.5 -3t-10.5 6t-3 12q2 15 0 23q-16 -9 -44 -49t-42 -82q-8 -29 -7 -45.5t9 -21.5q10 -7 34 2.5t59 39.5z" />
    <glyph glyph-name="softhyphen" unicode="&#xad;" 
 />
    <glyph glyph-name="plusminus" unicode="&#xb1;" horiz-adv-x="417" 
d="M348 311q7 0 13 -6t6 -14t-6 -13.5t-13 -5.5q-28 0 -87 -3q-8 -20 -17 -41q-12 -29 -18 -43t-9 -19t-6.5 -7.5t-10.5 -2.5q-8 0 -13.5 5.5t-5.5 13.5q0 5 2 9t25 59q2 5 5.5 13t5.5 11q-16 -1 -34 -2q-30 -1 -43 -2h-1q-7 0 -12.5 5.5t-6.5 13.5q0 8 5.5 13.5t13.5 6.5
q8 0 42 2q35 2 52 3q31 73 34 78q5 7 12.5 9t14.5 -2t9 -11.5t-2 -14.5q-3 -5 -25 -57q46 2 70 2zM279 93q3 0 6 -1t5.5 -2.5t4 -4l3 -5t1.5 -6.5q0 -7 -5.5 -13t-13.5 -7h-52q-144 1 -157 0q-1 -1 -2 -1q-7 0 -12.5 5t-6.5 12q-1 8 4 14.5t13 7.5q15 2 161 1h51z" />
    <glyph glyph-name="questiondown" unicode="&#xbf;" horiz-adv-x="354" 
d="M207 93q-85 -176 -107 -248q-8 -29 -10.5 -50t-0.5 -28t4 -9q3 -1 9.5 0t35 20.5t67.5 59.5q6 6 14 6t13.5 -5.5t5.5 -13.5t-5 -13q-90 -93 -137 -93q-12 0 -22 6q-43 25 -11 131q23 74 110 254q66 138 68 160q1 8 7 13.5t14 4.5q5 0 9 -3t6.5 -7.5t1.5 -9.5
q-1 -20 -17 -57t-55 -118zM289 378q12 -1 14.5 -9.5t-3.5 -17.5t-15 -12q-22 -7 -27 10.5t13 26.5q9 3 18 2z" />
    <glyph glyph-name="Adieresis" unicode="&#xc4;" horiz-adv-x="1082" 
d="M1002 205q6 -5 7.5 -13t-3.5 -14q-5 -8 -15 -8q-5 0 -8 2q-18 4 -161 9q-48 -204 -78 -346q-61 -283 -61 -362q4 6 9 14q4 7 12 9t14.5 -2t8.5 -11.5t-2 -14.5q-29 -49 -50 -49q-5 0 -10 2q-12 5 -16.5 21.5t-2 63t17.5 128.5t44.5 217.5t74.5 330.5q-76 2 -241 6
q-2 0 -7 1q-150 -287 -233 -400q-22 -30 -44 -46t-41 -18t-32 0.5t-25 9.5q-52 30 -82.5 122t-27.5 203t39 194q45 102 131.5 137t203.5 -1q8 -3 11.5 -10t1 -14.5t-9.5 -11t-15 -1.5q-39 12 -76 15t-77.5 -5t-75.5 -39.5t-59 -84.5q-27 -62 -33.5 -140t4.5 -144.5
t33.5 -118t50.5 -68.5q42 -24 92 44q80 107 222 378q-297 7 -323 12q-8 2 -12 8.5t-2.5 14.5t8 12.5t14.5 2.5q22 -5 334 -12q45 86 134 260q58 116 95 188t72.5 137t56.5 99t40 58.5t31.5 30.5t24.5 2q17 -6 21 -27t0 -58q-6 -65 -35 -194q-12 -57 -61 -258
q-39 -160 -60 -247q159 -6 171 -14zM555 227q153 -4 237 -7q28 117 62 255q48 201 61 258q39 176 35 226q-16 -16 -44.5 -62.5t-72 -128.5t-72.5 -138.5t-81 -158.5q-82 -163 -125 -244zM896 1090q-20 2 -9 21q9 16 24 21q23 6 25 -10q3 -18 -17 -28q-10 -5 -23 -4z
M1006 1132q23 6 25 -10q3 -18 -17 -28q-10 -5 -22 -4q-21 2 -10 21q9 16 24 21z" />
    <glyph glyph-name="Odieresis" unicode="&#xd6;" horiz-adv-x="919" 
d="M733 885q47 -45 78 -125.5t42 -186t-6.5 -240.5t-65.5 -274q-39 -114 -87 -206.5t-97 -155.5t-102 -106t-102 -63t-95 -20q-31 0 -58 9q-67 21 -113 86t-64 166q-43 225 52 568q14 51 32 100t39.5 98.5t47 92.5t54 79t61 62t65.5 37q18 6 35 7q56 82 121 108
q87 35 163 -36zM745 71q45 133 62.5 262t7.5 229.5t-38 177t-71 117.5q-57 54 -122 28q-46 -18 -89 -75q35 -8 68 -33q6 -5 7 -13t-4 -14t-12.5 -7t-14.5 3q-34 27 -68 29q-37 -58 -69 -143.5t-59.5 -203t-47 -275.5t-27.5 -344q0 -8 -6 -13.5t-14 -5t-13.5 6t-4.5 13.5
q14 326 63.5 571.5t127.5 386.5q-75 -29 -148 -148.5t-121 -292.5q-38 -138 -53.5 -257.5t-9.5 -206.5t28 -153.5t56 -104.5t78 -51q54 -17 118 7t130 85t131 171t115 254zM529 1052q-21 1 -9 21q8 15 24 20q22 7 25 -10t-17 -27q-10 -5 -23 -4zM624 1052q-20 1 -9 21
q9 15 23 20q23 7 26 -10t-17 -27q-10 -5 -23 -4z" />
    <glyph glyph-name="multiply" unicode="&#xd7;" horiz-adv-x="314" 
d="M259.5 318.5q4.5 -6.5 3.5 -14.5t-7 -13q-24 -18 -72 -59q9 -16 23 -39q24 -40 24 -46q0 -8 -6 -13.5t-14 -5.5q-11 0 -17 11q-1 2 -20 35q-18 29 -20 33q-23 -20 -63 -53l-9 -8q-6 -5 -13 -5q-9 0 -14 7q-6 6 -5 14t7 13l9 8q44 37 68 58q-31 53 -33 58q-3 8 0 15
t10.5 10t14.5 0t10 -10q3 -5 28 -48q45 37 68 56q7 5 15 4t12.5 -7.5z" />
    <glyph glyph-name="Udieresis" unicode="&#xdc;" horiz-adv-x="876" 
d="M884 947q12 -4 14 -17t-2 -26q-4 -19 -12 -59q-11 -49 -46 -201q-39 -172 -62.5 -276t-58.5 -271t-56 -294.5t-28 -214.5q-2 -27 -1 -48.5t3.5 -37.5t7 -27t8 -16.5t6.5 -5.5q4 -1 11 4.5t20 27.5t25 57q2 5 6 8.5t8.5 4.5t10.5 -1q7 -3 10.5 -10t0.5 -15
q-40 -115 -90 -115q-5 0 -10 1q-31 7 -45.5 54t-8.5 122q19 244 180 951q-117 -345 -241 -573q-83 -153 -160.5 -240.5t-145.5 -104.5q-64 -15 -108 32q-89 95 -65 398t153 716q1 5 5 8.5t9 4.5t10 -1q8 -2 11.5 -9t1.5 -15q-69 -220 -108.5 -410.5t-46 -322t8 -219
t49.5 -124.5q29 -31 71 -20q45 11 100.5 65t120.5 157.5t131.5 246t139 344t139.5 437.5v2q5 13 8 19.5t10 11.5t16 2zM483 989q-20 1 -9 21q9 16 24 21q23 7 25 -10q3 -18 -17 -28q-10 -5 -23 -4zM579 989q-21 1 -10 21q9 16 24 21q23 7 26 -10q2 -18 -18 -28
q-10 -5 -22 -4z" />
    <glyph glyph-name="germandbls" unicode="&#xdf;" horiz-adv-x="740" 
d="M660 304q52 -53 14 -163q-21 -59 -64 -119t-100.5 -111t-132 -87t-150.5 -45q-8 -1 -14 3.5t-7 12.5q-1 5 1 10t6 8t9 4q77 10 149 46.5t124 86.5t89 102.5t54 101.5q30 87 -5 123q-40 41 -154 5q-60 -20 -107 -39q-36 -36 -68 -54t-46 -16q-19 2 -20 20q-4 32 112 82
q105 105 168 290q20 68 14 121t-31 80q-23 24 -52 16q-12 -3 -26 -12t-39.5 -38.5t-49.5 -74t-53.5 -127t-54.5 -189.5q-52 -223 -91 -418t-46 -268q5 0 9 -2q7 -4 9.5 -11.5t-1.5 -14.5q-15 -32 -32 -32q-3 0 -7 2q-14 5 -16.5 24t4.5 71q8 65 30 179q42 217 104 478
q25 107 54.5 191t55.5 132.5t53.5 82t47.5 46.5t39 18q52 14 90 -27q34 -37 41 -104t-16 -135q-50 -147 -127 -249q21 8 41 14q136 44 192 -14z" />
    <glyph glyph-name="adieresis" unicode="&#xe4;" horiz-adv-x="372" 
d="M418.5 200.5q7.5 -3.5 10 -11t-1.5 -14.5q-107 -220 -190 -220q-6 0 -12 1q-67 13 -83 180q-49 -67 -87 -108q-33 -36 -58 -25q-24 9 -23 52q1 36 17 86.5t47 97t67 58.5q52 19 97 -35q5 -6 4.5 -14t-6.5 -13t-14 -4.5t-13 6.5q-35 42 -71 16q-40 -29 -67.5 -104.5
t-21.5 -107.5q6 5 14 13q38 41 94 119q15 21 21 28q8 11 21 7t14 -17q2 -50 8 -87.5t12 -57t14 -32.5t12.5 -16.5t9.5 -4.5q10 -2 25.5 7.5t35.5 31.5t46 63t53 97q3 7 10.5 9.5t15 -1zM72 390q-21 2 -10 22q9 15 24 20q23 7 26 -10t-17 -27q-11 -5 -23 -5zM167 390
q-20 2 -9 22q9 15 23 20q23 7 26 -10q3 -18 -17 -27q-10 -5 -23 -5z" />
    <glyph glyph-name="odieresis" unicode="&#xf6;" horiz-adv-x="320" 
d="M362 182q6 -5 7 -12.5t-4 -14.5q-41 -53 -98 -83.5t-107 -18.5q-14 -32 -37.5 -52t-52.5 -20h-2q-27 0 -47 18t-29 49q-13 49 4.5 93.5t50.5 64.5q8 5 16 2q9 22 26 34t35 9q9 -2 17.5 -8t17 -20.5t12.5 -43t2 -68.5q-1 -10 -2 -21q38 -8 84 19t80 70q5 6 13 7t14 -4z
M69 19q14 0 30 13t26 36q-34 18 -50.5 43.5t-18.5 53.5q-20 -19 -27 -51t1 -56q10 -38 39 -39zM135 113q2 36 -2 60.5t-8 32t-8 7.5t-10 -6.5t-10 -17.5q-6 -21 2.5 -43t34.5 -39q0 3 1 6zM33 404q-21 1 -9 21q9 15 23 20q23 7 26 -10t-17 -27q-10 -5 -23 -4zM128 404
q-20 1 -9 21q9 15 24 20q23 7 25 -10q3 -17 -17 -27q-11 -5 -23 -4z" />
    <glyph glyph-name="divide" unicode="&#xf7;" horiz-adv-x="349" 
d="M201 291q-21 1 -9 22q9 15 24 20q23 7 25 -10.5t-17 -27.5q-10 -5 -23 -4zM135 138q23 7 26 -9q2 -18 -17 -28q-11 -4 -23 -4q-21 2 -10 21q9 16 24 20zM279 232q6 0 10.5 -2.5t7 -7t2.5 -9.5q0 -8 -6 -13.5t-14 -5.5h-13q-178 1 -195 -1h-2q-7 0 -12.5 5t-6.5 12
q-1 8 4 14t13 7q19 2 200 1h12z" />
    <glyph glyph-name="udieresis" unicode="&#xfc;" horiz-adv-x="358" 
d="M398.5 190q6.5 -4 8.5 -12t-2 -14q-16 -26 -36.5 -55.5t-55.5 -74.5t-70.5 -74t-61.5 -29q-8 0 -14 3q-48 18 -28 153q-32 -45 -59 -68q-39 -33 -69 -8q-26 22 -23.5 78t32.5 108q4 7 11.5 9t14.5 -2t9 -11.5t-2 -14.5q-16 -28 -22.5 -59t-4.5 -51.5t10 -27.5q5 -4 19 8
q25 22 65 78q7 10 10 14.5t8 10.5t8 8.5t7.5 5t8.5 2t8 -2.5q13 -5 14.5 -22.5t-4.5 -45.5q-11 -55 -9 -84t4.5 -35.5t4.5 -6.5q9 -4 35.5 17t69.5 73.5t87 123.5q4 7 12 8.5t14.5 -2.5zM61 362q-20 1 -9 21q9 15 24 20q23 7 25 -10q3 -17 -17 -27q-10 -5 -23 -4zM157 362
q-21 1 -10 21q9 15 24 20q23 7 25 -10q3 -17 -17 -27q-10 -5 -22 -4z" />
    <glyph glyph-name="Euro" unicode="&#x20ac;" horiz-adv-x="461" 
d="M444 514q7 -3 11 -9.5t2 -14.5t-9 -12t-15 -1q-22 6 -59 -16q-37 -21 -77.5 -64t-70.5 -95q46 1 77 1q7 0 13 -6t6 -13.5t-6 -13.5t-13 -6q-35 0 -98 -1q-16 -35 -24 -67l-4 -16q77 1 92 5q14 9 25 -5q4 -6 3 -14t-7 -13q-15 -10 -119 -12q-4 -57 19 -101q12 -25 46 -35
q41 -12 74 7q7 4 15 1.5t12 -9.5t1.5 -14.5t-9.5 -11.5q-27 -16 -63 -16q-21 0 -41 7q-50 14 -69 53q-27 52 -23 119h-15h-42h-7q-8 0 -13.5 5.5t-5.5 13.5t5.5 13.5t13.5 5.5h8h61q2 13 6 26q7 27 19 57q-40 -1 -68 -1q-8 0 -14 5.5t-6 13.5t6 13.5t14 5.5q32 0 86 2
q33 64 81 116t93 78q51 29 89 19z" />
    <glyph glyph-name="notequal" unicode="&#x2260;" horiz-adv-x="629" 
d="M560 282q5 0 9.5 -3t7 -7t2.5 -10q0 -8 -5.5 -13.5t-13.5 -5.5q-44 0 -133 -1q-37 -1 -60 -1q-33 -34 -70 -72q88 -4 153 -15q8 -1 12.5 -7.5t3.5 -14.5q-1 -7 -6.5 -11.5t-12.5 -4.5h-3q-75 12 -183 16q-139 -141 -179 -176q-6 -4 -13 -4q-9 0 -14 6q-6 6 -5 14t7 13
q34 30 151 148q-41 1 -109 1h-8q-8 0 -13.5 5.5t-5.5 13.5t5.5 13.5t13.5 5.5h8h8q86 0 138 -1q36 36 68 70q-2 -1 -9.5 -1h-12.5q-75 0 -132 3q-5 0 -9.5 3t-7 7.5t-1.5 9.5q0 8 6 13.5t14 5.5q74 -4 189 -3q99 103 110 122q5 6 12.5 8t14.5 -2.5t8.5 -12t-2.5 -14.5
q-12 -19 -89 -100h22q90 2 134 2z" />
    <glyph glyph-name="lessequal" unicode="&#x2264;" horiz-adv-x="422" 
d="M369.5 378.5q4.5 -6.5 2.5 -14.5t-8 -13q-105 -70 -179 -107q-27 -14 -27 -23q0 -17 98 -67q39 -20 57 -30q7 -4 9 -11.5t-2 -14.5q-5 -10 -17 -10q-5 0 -9 3q-17 10 -56 29l-37.5 19.5t-31 18t-27.5 20t-16 20t-7 23.5q0 32 48 57q73 37 175 105q7 5 15 3.5t12.5 -8z
M303 17q8 0 13.5 -5.5t5.5 -13.5t-5 -13.5t-13 -6.5h-63q-157 1 -170 0q-1 -1 -2 -1q-7 0 -12.5 5.5t-6.5 12.5q-1 8 4.5 14t13.5 7q15 1 173 1h61h1z" />
    <glyph glyph-name="greaterequal" unicode="&#x2265;" horiz-adv-x="424" 
d="M253 340q43 -21 65.5 -34t38.5 -29t17 -32q1 -23 -24 -39q-127 -76 -227 -124q-4 -2 -8 -2q-12 0 -18 11q-3 7 -0.5 14.5t10.5 11.5q98 47 223 122l5 5q-5 15 -99 62q-59 29 -78 43q-6 4 -7.5 12t3.5 14.5t13 7.5t14 -3q16 -12 72 -40zM303 17q8 0 13.5 -5.5t6.5 -13.5
q0 -8 -5.5 -13.5t-13.5 -6.5h-63q-156 1 -170 0q-1 -1 -2 -1q-7 0 -12.5 5.5t-6.5 12.5q-1 8 4.5 14t13.5 7q15 1 173 1h62z" />
    </font>
</defs>
</svg>
