<?xml version="1.0" standalone="no"?>
<!DOCTYPE svg PUBLIC "-//W3C//DTD SVG 1.1//EN" "http://www.w3.org/Graphics/SVG/1.1/DTD/svg11.dtd" >
<svg xmlns="http://www.w3.org/2000/svg" xmlns:xlink="http://www.w3.org/1999/xlink" version="1.1">
<metadata>
Created by FontForge 20201107 at Fri Feb 23 09:22:57 2024
 By 
Copyright (c) 2016 by Cristina Pagnotta. All rights reserved.
</metadata>
<defs>
<font id="Audrey-BoldOblique" horiz-adv-x="2048" >
  <font-face 
    font-family="Audrey"
    font-weight="700"
    font-style="oblique"
    font-stretch="normal"
    units-per-em="2048"
    panose-1="0 0 0 0 0 0 0 0 0 0"
    ascent="1415"
    descent="-633"
    x-height="743"
    cap-height="1520"
    bbox="-78 -588 2736 1849"
    underline-thickness="102"
    underline-position="-204"
    unicode-range="U+0009-FB02"
  />
<missing-glyph 
 />
    <glyph glyph-name=".notdef" 
 />
    <glyph glyph-name=".null" horiz-adv-x="0" 
 />
    <glyph glyph-name="nonmarkingreturn" horiz-adv-x="682" 
 />
    <glyph glyph-name="HT" unicode="&#x9;" 
 />
    <glyph glyph-name="LF" unicode="&#xa;" 
 />
    <glyph glyph-name="CR" unicode="&#xd;" 
 />
    <glyph glyph-name="DLE" 
 />
    <glyph glyph-name="DC1" 
 />
    <glyph glyph-name="DC2" 
 />
    <glyph glyph-name="DC3" 
 />
    <glyph glyph-name="DC4" 
 />
    <glyph glyph-name="RS" 
 />
    <glyph glyph-name="US" 
 />
    <glyph glyph-name="space" unicode=" " horiz-adv-x="540" 
 />
    <glyph glyph-name="exclam" unicode="!" horiz-adv-x="636" 
d="M410 -39q-57 -45 -121 -45q-68 0 -103 47q-35 44 -22 111q16 67 69 112q57 45 121 45q69 0 105 -45q34 -46 22 -112q-15 -66 -71 -113zM678 1135l-232 -787h-129l103 787q17 135 43 311h305q-66 -238 -90 -311z" />
    <glyph glyph-name="quotedbl" unicode="&#x22;" horiz-adv-x="1232" 
d="M885 1497l-434 -706h-166l366 706h234zM1399 1497l-434 -706h-166l366 706h234z" />
    <glyph glyph-name="numbersign" unicode="#" horiz-adv-x="1566" 
d="M1571 537l-117 -213h-1290l96 159zM1268 1425l-908 -1519h-167l847 1519h228zM1802 1425l-907 -1519h-166l848 1519h225zM1782 1024l-115 -213h-1292l96 158z" />
    <glyph glyph-name="dollar" unicode="$" horiz-adv-x="901" 
d="M592 2l82 383q-12 8 -38 26.5t-42 28.5q-16 8 -23 15l-96 -453q62 -13 117 0zM815 369l-45 -213q0 2 1 5t1 5q23 73 -8 127q-4 8 -33 41zM743 713l80 374q-27 10 -49 13q-41 3 -65 -2l-66 -307q33 -31 100 -78zM942 969l-74 -342q39 -29 74 -60q65 -59 86 -149
q22 -94 -16 -205q-56 -174 -209 -276q-48 -30 -90 -46l-27 -124h-145l20 92q-54 -3 -100 2q-11 0 -17 2l-20 -96h-143l30 145q-132 78 -188 221l119 107q56 -118 102 -170l102 475q-20 15 -40 35q-66 63 -84 153q-18 92 12 191q48 151 182 239q38 23 70 37l26 133h146
l-21 -96q56 3 115 -10l22 106h146l-35 -164q53 -43 107 -149l-134 -92q-6 16 -16 41z" />
    <glyph glyph-name="percent" unicode="%" horiz-adv-x="1634" 
d="M662 1266q-15 37 -48 37q-31 0 -63 -37q-22 -23 -49.5 -89t-48.5 -165q-14 -68 -19 -124t-2 -85.5t10 -44.5q14 -35 50 -35q23 0 36.5 8t28.5 31q61 95 94 250q14 67 19 123.5t2 86.5t-10 44zM1593 637q-15 37 -49 37q-31 0 -63 -37q-21 -23 -49 -88.5t-50 -165.5
q-21 -116 -20.5 -171t10.5 -83q14 -35 49 -35q23 0 37 8t31 31q58 90 94 250q14 67 18.5 123.5t1.5 86.5t-10 44zM705 713q-109 -127 -242 -127q-132 0 -191 127q-51 114 -12 299q38 183 139 301q113 125 244 125q132 0 188 -127q54 -120 13 -299q-40 -185 -139 -299z
M1673 1436l-1112 -1483h-168l1116 1483h164zM1636 84q-112 -127 -243 -127q-133 0 -189 127q-54 114 -12 299q39 187 139 301q110 125 242 125q69 0 114.5 -31.5t75.5 -95.5q52 -115 13 -299q-38 -179 -140 -299z" />
    <glyph glyph-name="ampersand" unicode="&#x26;" horiz-adv-x="1097" 
d="M745 236l-245 460q-64 -42 -133 -118q-70 -79 -82 -148q-28 -136 30 -213q65 -98 183 -98q53 0 118 30.5t129 86.5zM854 1212q-6 52 -47 72q-23 10 -49 10q-57 0 -94 -34q-43 -40 -54 -95q-6 -26 4.5 -64t23 -65.5t42.5 -87.5q146 86 170 203q8 29 4 61zM911 -82
l-104 199l-51 -43q-201 -149 -389 -152q-71 0 -144 31q-70 28 -125 90q-49 55 -71 137q-21 83 0 176q36 151 135 250q98 98 278 209q-89 178 -65 297q27 125 145 225q117 99 264 99q140 0 217 -74q79 -79 52 -203q-39 -191 -312 -328l222 -405l223 195h119l14 -56l-295 -258
l209 -389h-322z" />
    <glyph glyph-name="quotesingle" unicode="'" horiz-adv-x="716" 
d="M881 1477l-435 -707h-165l366 707h234z" />
    <glyph glyph-name="parenleft" unicode="(" horiz-adv-x="724" 
d="M504 -428h-156q-219 368 -129 799q43 206 155.5 393.5t297.5 374.5h176q-41 -40 -87.5 -97t-102.5 -148t-103 -193t-82.5 -234t-48.5 -269t5.5 -300.5t74.5 -325.5z" />
    <glyph glyph-name="parenright" unicode=")" horiz-adv-x="827" 
d="M268 -428h-176q41 40 87.5 97t102.5 148t103 193t82.5 234t48.5 269t-5.5 300.5t-74.5 325.5h156q219 -368 129 -799q-43 -207 -155.5 -395t-297.5 -373z" />
    <glyph glyph-name="asterisk" unicode="*" horiz-adv-x="1431" 
d="M1341 901l-219 -278l-110 110l-94 96l-5 -147q0 -54 -8 -174h-319q32 92 65 174l60 149l-136 -96q-27 -22 -157 -112l-103 278q163 57 179 62l151 49l-131 51q-47 16 -152 59l222 279q34 -34 71 -71.5t39 -39.5l92 -98l5 145q0 49 8 172h319q-33 -92 -65 -172l-58 -145
l133 98q3 2 160 111l101 -279q-116 -41 -177 -59l-153 -51l133 -49q6 -3 149 -62z" />
    <glyph glyph-name="plus" unicode="+" horiz-adv-x="962" 
d="M1165 555h-405l-88 -418h-191l88 418h-405l39 178h405l88 418h191l-88 -418h405z" />
    <glyph glyph-name="comma" unicode="," horiz-adv-x="759" 
d="M645 201l-459 -676h-176l385 676h250z" />
    <glyph glyph-name="hyphen" unicode="-" horiz-adv-x="913" 
d="M784 311h-559l47 228h559z" />
    <glyph glyph-name="period" unicode="." horiz-adv-x="671" 
d="M416 -35q-56 -47 -123 -47q-66 0 -103 49q-35 47 -20 111q11 61 70 110q57 48 120 48q67 0 103 -48q36 -45 24 -110q-15 -66 -71 -113z" />
    <glyph glyph-name="slash" unicode="/" horiz-adv-x="1157" 
d="M1423 1473l-1077 -1543h-315l1077 1543h315z" />
    <glyph glyph-name="zero" unicode="0" horiz-adv-x="1390" 
d="M1106 1255q-21 48 -50.5 68t-74.5 20q-47 0 -85.5 -20t-78.5 -68q-48 -54 -104.5 -187.5t-98.5 -330.5q-29 -133 -37.5 -245.5t-2 -175t21.5 -97.5q21 -49 50.5 -68.5t76.5 -19.5q59 0 97.5 23.5t76.5 81.5q25 36 52 87.5t68.5 166t69.5 247.5q29 135 38 247t3 175
t-22 96zM1118 182q-101 -117 -205.5 -173t-226.5 -56t-203 56t-133 171q-94 213 -22 557q75 347 260 559q100 115 204.5 169.5t225.5 54.5t202 -55t134 -171q94 -213 22 -557q-72 -342 -258 -555z" />
    <glyph glyph-name="one" unicode="1" horiz-adv-x="1390" 
d="M903 -47h-57h-148h-96l301 1415l-33 -2h-102l20 96l13 58h436l-20 -95z" />
    <glyph glyph-name="two" unicode="2" horiz-adv-x="1390" 
d="M1300 801q-101 -129 -389 -359q-110 -90 -258 -190h580l-21 -94l-43 -205h-47h-6h-205h-520h-209l25 119l16 55q145 92 185 119q113 77 219 168q233 200 356 354q114 141 141 283q36 165 -22 235q-59 74 -172 74q-88 0 -182 -68q-51 -37 -91 -86l-32 -43l-146 74l45 51
q69 79 140 125q171 107 354 107q190 0 319 -111q135 -120 88 -344q-29 -136 -125 -264z" />
    <glyph glyph-name="three" unicode="3" horiz-adv-x="1390" 
d="M1053 868q71 -24 131 -108q83 -124 45 -305q-47 -222 -238 -363q-100 -74 -195 -106.5t-210 -32.5q-100 0 -191 33l-92 32l197 158l39 -26q39 -23 82 -23q109 0 194 76q86 76 125 256q29 141 -8 200q-33 56 -92 56q-32 0 -82 -31l-62 -37l-80 156l64 37q24 14 37 20
q195 112 252 172q54 58 75 150q17 79 -14 121q-30 40 -102 40q-80 0 -148 -47q-34 -20 -55 -55l-43 -72l-172 117l53 57q48 45 78 68q147 109 352 109q97 0 161 -21.5t114 -73.5q96 -96 69 -223q-24 -113 -123 -201q-90 -87 -161 -133z" />
    <glyph glyph-name="four" unicode="4" horiz-adv-x="1390" 
d="M772 608l86 410l-379 -410h293zM1354 440h-60h-241l-103 -487h-61h-158h-98l104 487h-119h-395l27 123q6 13 227.5 252t439.5 472l218 233h147l-59 -283l-133 -629h299z" />
    <glyph glyph-name="five" unicode="5" horiz-adv-x="1390" 
d="M999 117q-188 -164 -464 -164q-108 0 -199 33l-72 28l180 144l31 -25q32 -29 96 -29q117 0 224 93q103 92 153 319q42 207 -10 281q-49 75 -135 75q-120 0 -228 -129q-21 -11 -61 -17t-70 -6l-30 -1l116 555l31 141l2 12l21 93h731l-62 -293h-67h-12h-127h-363l-55 -264
q121 73 243 73q200 0 308 -147q109 -148 61 -365q-53 -245 -242 -407z" />
    <glyph glyph-name="six" unicode="6" horiz-adv-x="1390" 
d="M1044 670q-9 54 -53 92q-43 37 -106 37q-88 0 -172 -66q-79 -62 -119 -250q-21 -92 -12 -184q9 -81 53 -125q40 -43 106 -43q104 0 168 76q78 88 117 276q25 116 18 187zM690 905q126 74 252 74q206 0 324 -145q41 -51 56 -118t10 -122t-21 -125q-23 -107 -65 -195.5
t-128 -164.5q-182 -156 -401 -156q-189 0 -297 117q-104 110 -119 276q-15 155 21 330q74 351 290 592q228 252 518 252q49 0 115 -15l70 -16l-105 -176l-55 18q-27 10 -92 10q-138 0 -229 -114q-90 -114 -144 -322z" />
    <glyph glyph-name="seven" unicode="7" horiz-adv-x="1390" 
d="M1497 1520l-74 -129q-743 -1310 -807 -1407q-22 -14 -55.5 -21.5t-56.5 -8.5l-23 -1h-75l40 72q22 38 321 551.5t376 646.5h-348h-27h-272l41 190l2 12l20 95h938z" />
    <glyph glyph-name="eight" unicode="8" horiz-adv-x="1390" 
d="M967 623q-44 53 -140 53q-91 0 -147 -62q-69 -76 -94 -204q-23 -106 -17 -168q3 -47 41 -80q41 -33 107 -33q90 0 157 49q64 50 101 219q37 174 -8 226zM1083 1296q-32 52 -106 52q-67 0 -121 -48q-57 -54 -82 -170q-33 -151 -2 -221q20 -55 94 -55q85 0 135 53
q63 66 91 205q25 121 -9 184zM1044 70q-171 -117 -360 -117q-195 0 -311 125q-119 128 -78 317q39 170 164 283q69 60 137 96q-34 30 -64 76q-70 111 -40 260q42 183 194 297q154 113 332 113q164 0 276 -109q119 -116 78 -301q-29 -144 -143 -258q-37 -34 -103 -78
q37 -23 78 -74q101 -119 60 -299q-45 -211 -220 -331z" />
    <glyph glyph-name="nine" unicode="9" horiz-adv-x="1390" 
d="M1126 1176q-6 79 -51 124q-43 43 -106 43q-106 0 -170 -73q-93 -112 -129 -279q-19 -91 -4 -184q9 -56 53 -94q43 -37 106 -37q87 0 170 65q81 64 121 250q19 96 10 185zM1020 569q-127 -73 -254 -73q-204 0 -322 145q-106 135 -57 365q46 220 205 360q180 154 401 154
q191 0 297 -115q104 -113 119 -277q15 -158 -23 -329q-70 -345 -288 -592q-230 -254 -518 -254q-131 0 -226 53l-69 43l202 160l33 -53q5 -9 14.5 -14.5t25.5 -7t26.5 -2t32 0t28.5 0.5q135 0 230 117q89 109 143 319z" />
    <glyph glyph-name="colon" unicode=":" horiz-adv-x="649" 
d="M416 -35q-56 -47 -121 -47q-68 0 -105 49q-33 44 -20 111q11 61 70 110q57 48 120 48q66 0 105 -48q34 -46 22 -110q-15 -66 -71 -113zM569 690q-56 -47 -120 -47q-69 0 -103 49q-34 46 -22 111q11 59 67 108q56 50 125 50q63 0 102 -48q35 -44 23 -110q-14 -65 -72 -113
z" />
    <glyph glyph-name="semicolon" unicode=";" horiz-adv-x="763" 
d="M639 186l-459 -675h-176l385 675h250zM717 690q-56 -47 -121 -47q-68 0 -102 49q-35 47 -23 111q15 61 68 108q56 50 125 50q63 0 102 -48q35 -43 22 -110q-15 -66 -71 -113z" />
    <glyph glyph-name="less" unicode="&#x3c;" horiz-adv-x="540" 
 />
    <glyph glyph-name="equal" unicode="=" horiz-adv-x="2836" 
d="M2609 446h-1001l41 191h1001zM2681 778h-1002l41 191h1002z" />
    <glyph glyph-name="greater" unicode="&#x3e;" horiz-adv-x="540" 
 />
    <glyph glyph-name="question" unicode="?" horiz-adv-x="927" 
d="M385 -31q-56 -47 -123 -47q-68 0 -102 49q-35 47 -23 111q15 65 72 113q54 45 121 45q66 0 102 -45q38 -47 23 -113q-12 -64 -70 -113zM852 760q-119 -107 -258 -107q-52 0 -86 11l-88 -314h-135l88 490h162q24 -33 51 -33q53 0 94 55q49 72 82 219q25 133 -14 185
q-39 53 -105 53q-35 0 -64.5 -8t-78.5 -35l-88 110q93 41 152.5 56.5t115.5 15.5q196 0 278 -131q73 -113 31 -307q-36 -171 -137 -260z" />
    <glyph glyph-name="at" unicode="@" horiz-adv-x="550" 
 />
    <glyph glyph-name="A" unicode="A" horiz-adv-x="1619" 
d="M1022 635l-92 452l-279 -452h371zM1487 -47h-332l-57 299l-49 244h-480l-323 -543h-176l981 1567h102z" />
    <glyph glyph-name="B" unicode="B" horiz-adv-x="1380" 
d="M936 633q-67 74 -295 74h-45l-127 -598h139q89 0 145 13t95 46q89 76 121 233q35 160 -33 232zM1053 1270q-18 50 -66 76q-52 30 -199 30q-6 0 -24 -1t-27 -1l-110 -526h8q214 0 301 63q84 63 111 203q23 101 6 156zM1143 127q-110 -107 -264 -143q-129 -31 -361 -31
h-385l334 1567h340q311 0 458.5 -95.5t104.5 -296.5q-34 -163 -174 -264q-62 -44 -139 -71q104 -35 162 -99q113 -122 73 -299q-30 -152 -149 -268z" />
    <glyph glyph-name="C" unicode="C" horiz-adv-x="1345" 
d="M842 -47q-327 0 -494 209q-164 208 -92 549q47 222 184 417q135 197 334 297q192 95 397 95q170 0 295 -70q120 -69 176 -162v-43l-118 -94q-42 92 -76 121q-108 102 -279 102q-200 0 -352 -162q-159 -173 -227 -491q-63 -303 35 -461q98 -154 290 -154q104 0 226 52
q49 21 96 59t113 113l90 -113q-151 -137 -296 -200.5t-302 -63.5z" />
    <glyph glyph-name="D" unicode="D" horiz-adv-x="1671" 
d="M1348 1016q-15 137 -80 217q-65 86 -154 113q-94 30 -260 30q-80 0 -119 -2l-272 -1278h180q185 0 307 49q115 44 221 185q108 145 156 368q36 176 21 318zM1538 408q-83 -148 -192 -238q-107 -91 -242 -143q-127 -50 -238 -62q-105 -12 -288 -12h-447l334 1569l448 -2
q337 0 508 -105q173 -107 228 -287q56 -175 6 -413q-34 -166 -117 -307z" />
    <glyph glyph-name="E" unicode="E" horiz-adv-x="1173" 
d="M1382 1378h-497h-152l-57 -270l-10 -43l-45 -219h102h321l-30 -141h-316h-108l-29 -136l-8 -32l-10 -56l-23 -102l-59 -283h145h498l-31 -141h-948l90 424l23 102l18 88l115 541l88 412h952z" />
    <glyph glyph-name="F" unicode="F" horiz-adv-x="987" 
d="M1368 1378h-496h-149l-59 -274l-9 -43l-47 -215h103h323l-30 -141h-318h-106l-31 -140l-6 -35l-13 -53l-22 -102l-88 -422h-305l90 420l20 104l19 88l116 541l89 414h950z" />
    <glyph glyph-name="G" unicode="G" horiz-adv-x="1622" 
d="M1395 133q-119 -86 -185 -108q-204 -72 -362 -72q-321 0 -494 215q-171 213 -100 543q67 318 324 563q258 246 610 246q309 0 463 -232l-9 -45l-122 -100q-38 81 -68 119q-96 114 -274 114q-181 0 -344 -135q-166 -137 -242 -496q-77 -358 24 -505q103 -142 293 -142
q102 0 187 39q78 37 116 88q37 53 54 142l65 307h297l-59 -279l-35 45q18 -192 -139 -307z" />
    <glyph glyph-name="H" unicode="H" horiz-adv-x="1656" 
d="M1454 -47h-305l160 752h-697l-159 -752h-303l331 1567h305l-143 -674h694l144 674h305z" />
    <glyph glyph-name="I" unicode="I" horiz-adv-x="657" 
d="M453 -47h-303l90 430l153 725l88 412h305l-88 -412l-153 -725z" />
    <glyph glyph-name="J" unicode="J" horiz-adv-x="1001" 
d="M854 297q-26 -80 -111 -172q-81 -84 -188 -127q-107 -45 -236 -45q-51 0 -98 14q-7 2 -19.5 8t-15.5 7q-20 12 -92 53l146 88q35 -16 61 -25t35 -10l8 -2q81 0 145 49q73 60 95 121q33 92 75 274l162 762l49 228h260l-49 -228l-161 -762q-33 -144 -66 -233z" />
    <glyph glyph-name="K" unicode="K" horiz-adv-x="1632" 
d="M1313 276l2 3q-8 8 -8 24l274 -350h-422l-186 260l86 31q-26 -3 -46 -3.5t-34.5 3t-24.5 6.5t-18.5 11t-12.5 13l-12 15l-307 389l-63 -49l-54 -250l-90 -426h-305l90 426l154 725l90 416h303l-88 -416l-59 -279l422 324q2 3 4.5 5.5t6 5.5t5.5 5l469 355h207l-430 -334
q-62 -50 -107 -84l-39 -37l-250 -188l404 -527q4 -5 17.5 -17.5t17.5 -19.5l-84 -32q88 15 88 -5z" />
    <glyph glyph-name="L" unicode="L" horiz-adv-x="1284" 
d="M1214 -47h-1116l90 426l154 725l90 416h303l-303 -1424h813z" />
    <glyph glyph-name="M" unicode="M" horiz-adv-x="1931" 
d="M1729 -47h-306l95 440l153 723l-760 -1163h-110l-262 1161l-138 -645l-110 -516h-141l110 522l137 643l84 402h281l266 -1153l754 1153h278l-84 -402l-155 -725z" />
    <glyph glyph-name="N" unicode="N" horiz-adv-x="1562" 
d="M1360 -47h-109l-694 1270l-184 -865l-78 -368h-141l77 368l164 764l84 398h293l549 -1026l154 723l65 303h152l-68 -320z" />
    <glyph glyph-name="O" unicode="O" horiz-adv-x="1835" 
d="M1489 1217q-47 82 -117.5 120.5t-187.5 38.5q-111 0 -184.5 -35.5t-157.5 -119.5q-160 -157 -230 -482q-69 -326 23 -485q48 -84 111 -120t184 -36q104 0 185.5 37.5t166.5 118.5q74 72 122 188.5t85 294.5q25 116 34 200.5t1.5 156.5t-35.5 123zM1475 172
q-141 -113 -277.5 -166t-314.5 -53q-172 0 -284.5 52.5t-207.5 164.5q-184 217 -110 578q75 350 356 561q143 109 275.5 160t299.5 51q171 0 283.5 -50t210.5 -157q195 -212 117 -574q-75 -352 -348 -567z" />
    <glyph glyph-name="P" unicode="P" horiz-adv-x="1265" 
d="M1024 1294q-62 72 -242 72h-65l-123 -575h57q139 0 193 16q69 18 123 80q58 67 82 174q35 160 -25 233zM1264 844q-82 -101 -207 -154q-60 -26 -150 -34.5t-231 -8.5h-111l-59 -278q-33 -142 -33 -144l-37 43q17 -32 13 -102t-17 -142l-14 -71h-303l88 416l151 716
l92 435h347q218 0 352 -41q123 -39 192 -144q69 -110 35 -258q-26 -129 -108 -233z" />
    <glyph glyph-name="Q" unicode="Q" horiz-adv-x="1812" 
d="M754 123q2 2 10 2q86 18 176 14q4 0 125 -14q3 0 6.5 -1t5.5 -1q90 37 185 129q73 72 121 188t85 295q25 115 34 199.5t1.5 156t-35.5 121.5q-47 82 -117.5 121t-185.5 39q-112 0 -185 -35.5t-157 -119.5q-160 -157 -229 -480q-69 -325 24 -485q56 -95 136 -129z
M1454 170q-113 -87 -199 -129q61 -41 118.5 -105.5t133.5 -181.5l-217 -53q-92 195 -243 270q-83 -18 -181 -18q-173 0 -284.5 52t-208.5 165q-184 217 -109 573q74 350 354 562q143 109 276 160t300 51q168 0 281 -50.5t211 -158.5q193 -208 116 -570q-75 -352 -348 -567z
" />
    <glyph glyph-name="R" unicode="R" horiz-adv-x="1466" 
d="M1059 1303q-41 63 -289 63l-45 2l-121 -573h123q46 4 72 10q14 3 38 10.5t33 9.5q43 13 95 58q38 27 67 78q29 49 47 129q28 131 -20 213zM995 709q88 -71 156 -203q9 -17 25 -53.5t57.5 -179t75.5 -320.5h-273q-1 27 -5.5 70.5t-18.5 111.5t-34 136t-55.5 138t-80 123
t-110 87t-142.5 34l-17 2l-55 -264l-94 -438h-301l94 438l150 713l90 416h366q231 0 342 -35q144 -45 205 -133q69 -100 41 -242q-38 -166 -178 -279q-103 -79 -238 -122z" />
    <glyph glyph-name="S" unicode="S" horiz-adv-x="1243" 
d="M913 41q-168 -111 -385 -86q-115 12 -222.5 95.5t-158.5 209.5l125 111q71 -147 130.5 -202.5t156.5 -70.5q119 -17 211 49q91 62 119 150q27 88 -10 152q-40 66 -197 167q-149 97 -213 158q-75 72 -96 174q-22 110 14 213q52 169 205 273q150 97 326 79q89 -8 169 -51
q40 -22 75.5 -65t76.5 -121l-141 -98q-31 75 -43 92q-57 90 -170 102q-101 11 -162 -37q-65 -48 -84 -112q-25 -79 14 -138q43 -67 199 -172q170 -117 219 -161q71 -62 96 -168q23 -104 -18 -232q-61 -195 -236 -311z" />
    <glyph glyph-name="T" unicode="T" horiz-adv-x="1462" 
d="M1907 1378h-420h-197l-209 -989l-92 -436h-305l92 436l211 989h-170h-440l35 142h1521z" />
    <glyph glyph-name="U" unicode="U" horiz-adv-x="1605" 
d="M1466 360q-34 -91 -141 -198q-101 -98 -246 -154q-146 -55 -319 -55q-199 0 -334 72q-130 71 -170 190q-44 128 6 305l41 150l96 450l86 400h301l-84 -400l-98 -458q-37 -181 -41 -203q-16 -88 -16 -125q0 -91 65 -148q74 -65 232 -65q128 0 235 45q115 48 168 110
q69 69 90 134q54 154 74 241l105 496l79 373h142l-84 -392l-103 -485q-34 -162 -84 -283z" />
    <glyph glyph-name="V" unicode="V" horiz-adv-x="1662" 
d="M1870 1520l-330 -521l-661 -1046h-127l-263 1169l-6 31q-7 22 -14 74q-3 15 -14 59l-52 234h314l74 -308l188 -860l438 697q35 56 76 127l209 344h168z" />
    <glyph glyph-name="W" unicode="W" horiz-adv-x="2455" 
d="M2662 1520l-329 -521l-662 -1046h-127l-174 778l-491 -778h-127l-263 1165l-8 29q-2 10 -6.5 36t-7.5 40q-10 51 -14 61l-50 236h314l74 -308l188 -860q147 231 266.5 422.5t166.5 267.5l46 76h146l168 -764l438 690q46 75 76 127l208 349h168z" />
    <glyph glyph-name="X" unicode="X" horiz-adv-x="1818" 
d="M946 1212l-55 13q28 -7 85.5 -79t100.5 -140l43 -68l264 260l117 117l209 205h191l-363 -357q-7 -7 -35.5 -32t-44.5 -41l-266 -265l266 -438q18 -29 121 -186l158 -248h-422l-129 233q-38 73 -70 125l-168 281l-246 -240l-96 -96l-301 -303h-192l374 371q92 92 113 112
l279 269l-271 436l-94 149q-3 6 -11 16.5t-11 16.5l-130 197h406z" />
    <glyph glyph-name="Y" unicode="Y" horiz-adv-x="1642" 
d="M1874 1520l-774 -949l-131 -618h-303l127 604l-396 963h377l287 -783l616 783h197z" />
    <glyph glyph-name="Z" unicode="Z" horiz-adv-x="1325" 
d="M1546 1405l-1181 -1309h358h530l-30 -143h-1278l20 102l1182 1323h-369h-430l33 142h1190z" />
    <glyph glyph-name="bracketleft" unicode="[" horiz-adv-x="1792" 
d="M666 1116h24h31h22l-10 -47h-22h-31h-23zM1409 -428h-211h-135q-16 20 -23.5 43t-6.5 36l1 13l291 1364l21 92h47h133h211l-29 -137h-166l-268 -1274h164z" />
    <glyph glyph-name="backslash" unicode="\" horiz-adv-x="1275" 
d="M1153 -82h-315l-420 1530h315z" />
    <glyph glyph-name="bracketright" unicode="]" horiz-adv-x="757" 
d="M451 -428h-183h-211l31 137h164l270 1274h-164l29 137h211h133q17 -21 24.5 -44t6.5 -36l-2 -12l-291 -1364z" />
    <glyph glyph-name="asciicircum" unicode="^" horiz-adv-x="2471" 
d="M905 1497h25h41h22l-8 -45h-24h-41h-23zM2736 668h-340l-211 467l-407 -467h-185l713 854h64z" />
    <glyph glyph-name="underscore" unicode="_" 
 />
    <glyph glyph-name="grave" unicode="`" 
 />
    <glyph glyph-name="a" unicode="a" horiz-adv-x="1030" 
d="M641 180l43 203l-39 -14q-225 -83 -246 -197q-8 -43 4 -61q13 -19 39 -19q31 0 84 23q41 18 115 65zM588 -66l16 76l2 13q-166 -91 -270 -91q-59 0 -102 39t-58.5 89.5t-7.5 93.5q12 59 41.5 101t91.5 83q116 75 291 141l123 45v6q15 74 12 99q0 16 -25 35q-23 20 -79 20
q-47 0 -83 -12t-91 -45l-76 98q88 50 154.5 70t142.5 20q126 0 192 -41q69 -46 80 -104q12 -48 -8 -160l-64 -299l-59 -279q-51 2 -223 2z" />
    <glyph glyph-name="b" unicode="b" horiz-adv-x="1136" 
d="M807 602q-38 68 -121 68q-95 0 -209 -92l-90 -422q2 -8 8.5 -17.5t12 -15t18 -17.5t16.5 -16q38 -35 97 -35q90 0 163 76q79 89 111 248q33 150 -6 223zM403 1278h125h52h47l-115 -535q119 66 227 66q177 0 267 -125q81 -115 34 -324q-38 -188 -170 -309
q-147 -129 -333 -129q-116 0 -187 62l-12 -62h-221z" />
    <glyph glyph-name="c" unicode="c" horiz-adv-x="944" 
d="M526 -78q-176 0 -270 119q-97 121 -53 315q41 197 186 318q146 119 324 119q78 0 139 -23.5t121 -83.5l-109 -90q-37 33 -68.5 45t-72.5 12q-107 0 -176 -78q-75 -85 -103 -219q-29 -136 11 -217q35 -78 141 -78q42 0 78 12.5t88 45.5l72 -90q-87 -60 -158.5 -83.5
t-149.5 -23.5z" />
    <glyph glyph-name="d" unicode="d" horiz-adv-x="1165" 
d="M776 156l90 422q-74 92 -172 92q-82 0 -147 -68q-70 -73 -103 -223q-36 -166 9 -248q37 -76 131 -76q57 0 110 35q8 6 30 20.5t34 25t18 20.5zM1014 1278h47h51h125l-289 -1356h-221l12 62q-98 -62 -213 -62q-188 0 -276 129q-83 119 -41 309q44 209 172 324
q143 125 321 125q110 0 199 -66z" />
    <glyph glyph-name="e" unicode="e" horiz-adv-x="1015" 
d="M670 676q-104 0 -162 -111h278q-4 45 -31 78t-85 33zM969 438h-506q-1 -6 -2.5 -12l-3 -12t-2.5 -8q-39 -182 -2 -269q31 -76 125 -76q61 0 113 29.5t118 104.5l76 -99q-70 -79 -140 -116q-107 -58 -221 -58q-112 0 -188 53q-85 54 -121 150q-38 93 -10 231
q42 196 182 322q143 131 318 131q167 0 235 -104q36 -51 42.5 -111t-13.5 -156z" />
    <glyph glyph-name="f" unicode="f" horiz-adv-x="821" 
d="M1077 1212l-123 -100q-31 40 -52 53t-44 13q-40 0 -76 -29q-40 -30 -55 -78q-18 -53 -63 -262l-2 -10h157l-28 -135h-158l-66 -308l-20 -98l-66 -303h-223l64 303l86 406h-140l29 135h139l6 22q21 104 47 183q25 68 91 147q68 77 149 117q99 51 189 43q54 -6 85.5 -25.5
t73.5 -73.5z" />
    <glyph glyph-name="g" unicode="g" horiz-adv-x="1077" 
d="M770 635q-25 31 -88 31q-74 0 -102 -35q-49 -56 -74 -176q-22 -105 6 -152q22 -31 90 -31q65 0 98 31q51 44 76 168q27 122 -6 164zM793 -500q-136 -88 -347 -88q-190 0 -296 78q-110 81 -84 213q1 2 14 53h162q-4 -22 -6 -40t0 -40.5t10.5 -40.5t26.5 -36t44.5 -29.5
t69 -19t96.5 -7.5q126 0 203 49q67 41 82 107q0 1 4 20.5t4 30.5q3 28 -8 45q-37 62 -223 62q-261 0 -305 37q-72 56 -52 145q22 121 156 176q-105 108 -72 262q31 144 162 240t277 96q92 0 178.5 -41.5t111.5 -105.5q38 -90 17 -193q-27 -134 -146 -235
q-115 -103 -335 -113q-157 -5 -179 -49q-7 -14 11 -17q62 -12 229 -16q49 0 123 -4q66 -4 84 -8q95 -24 139 -105q45 -74 23 -184q-30 -152 -174 -242z" />
    <glyph glyph-name="h" unicode="h" horiz-adv-x="1054" 
d="M416 1309h131h28h64l-119 -564q116 84 244 84q109 0 170 -47q66 -47 72 -118q8 -60 -21 -199l-43 -207l-65 -303h-224l64 303l49 225q19 97 16 129q0 28 -22 47q-28 21 -72 21q-58 0 -108 -33q-51 -31 -103 -98l-61 -291l-66 -303h-223l66 303l159 750z" />
    <glyph glyph-name="i" unicode="i" horiz-adv-x="602" 
d="M395 -47h-223l64 305l49 227l2 13l69 331h158h68l-95 -438l-28 -133zM612 1024q-56 -43 -110 -43q-58 0 -90 43q-33 42 -21 102q12 57 64 99q49 43 108 43q60 0 90 -43q34 -40 21 -99q-12 -58 -62 -102z" />
    <glyph glyph-name="j" unicode="j" horiz-adv-x="892" 
d="M659 -211q-23 -71 -84 -141q-64 -70 -149 -109q-90 -41 -186 -41q-43 0 -138 23l82 149q41 -39 62 -39q8 -1 17 -1t18 0.5t12 0.5q41 0 78 27t55 70q19 52 47 184l123 577l74 342h155h66l-180 -851q-19 -99 -52 -191zM918 1024q-50 -41 -109 -41q-62 0 -92 43
q-30 44 -19 100q13 59 62 99q49 43 110 43t91 -43q31 -41 18 -99q-12 -59 -61 -102z" />
    <glyph glyph-name="k" unicode="k" horiz-adv-x="1034" 
d="M387 1204h133h64h26l-147 -696l459 291h125l-15 -70l-418 -264l328 -512h-285l-235 364l-12 -59l-66 -305h-223l63 305l178 829z" />
    <glyph glyph-name="l" unicode="l" horiz-adv-x="569" 
d="M662 1309l-224 -1051l-65 -305h-223l63 305l158 743l65 308h135h91z" />
    <glyph glyph-name="m" unicode="m" horiz-adv-x="1626" 
d="M1415 -47h-223l63 305l54 250q16 68 16 106q-4 23 -20 39q-23 19 -64 19q-90 0 -223 -133l-60 -281l-65 -305h-223l63 305l45 209q21 107 21 135q3 25 -21 49q-21 21 -63 21q-86 0 -217 -117l-62 -297l-65 -305h-224l66 305l47 225l74 346h223l-18 -90q126 90 258 90
q106 0 166 -51q39 -36 53 -80q159 131 305 131q100 0 164 -49q65 -52 65 -118q3 -58 -22 -179l-47 -225z" />
    <glyph glyph-name="n" unicode="n" horiz-adv-x="1103" 
d="M893 -47h-223l63 305l45 209q21 107 21 135q3 25 -21 49q-21 21 -63 21q-86 0 -217 -117l-62 -297l-65 -305h-224l66 305l47 225l74 346h223l-18 -90q126 90 258 90q106 0 166 -51q74 -66 67 -155q0 -19 -8 -68l-64 -297z" />
    <glyph glyph-name="o" unicode="o" horiz-adv-x="1140" 
d="M817 612q-31 64 -119 64q-84 0 -145 -64q-80 -88 -113 -250q-36 -168 6 -247q35 -60 121 -60t146 60q73 77 110 247q37 167 -6 250zM858 41q-146 -119 -319 -119q-174 0 -269 121q-95 118 -53 324q42 189 186 313q147 129 324 129t268 -129q94 -132 54 -313
q-45 -206 -191 -326z" />
    <glyph glyph-name="p" unicode="p" horiz-adv-x="1142" 
d="M791 557q-45 68 -125 68q-96 0 -199 -99l-90 -415q31 -46 65 -66q42 -25 88 -25q80 0 158 72q80 71 119 248q32 149 -16 217zM864 12q-142 -133 -332 -133q-106 0 -190 62l-41 -187l-63 -299h-222l64 299l143 672l74 344h221l-14 -68q112 68 231 68q175 0 264 -123
t48 -315q-41 -190 -183 -320z" />
    <glyph glyph-name="q" unicode="q" horiz-adv-x="1173" 
d="M778 111l88 415q-63 99 -157 99q-80 0 -154 -68q-76 -67 -109 -217q-36 -177 13 -248q48 -72 127 -72q46 0 98 25q39 18 94 66zM860 -545h-221l63 299l39 187q-111 -62 -217 -62q-187 0 -274 133q-88 129 -47 320q45 195 182 315q141 123 315 123q120 0 203 -68l15 68
h221l-72 -344l-143 -672z" />
    <glyph glyph-name="r" unicode="r" horiz-adv-x="813" 
d="M844 766l-99 -137q-58 40 -91.5 39.5t-84.5 -39.5q-53 -42 -75 -90q-25 -52 -45 -148l-29 -133l-66 -305h-223l64 305l45 213l77 358h213l-16 -84q49 37 101.5 54t112 10t116.5 -43z" />
    <glyph glyph-name="s" unicode="s" horiz-adv-x="837" 
d="M219 41l-37 76l41 -72zM539 -41q-105 -56 -209 -35q-59 12 -101.5 52.5t-76.5 121.5l129 76q21 -62 43 -87.5t57 -33.5q44 -8 72 13q30 21 47 55q14 38 2 65q-14 36 -90 103q-90 83 -115 149q-31 79 8 168q35 89 125 152q92 69 205 47q54 -11 90 -47t63 -111l-124 -74
q-20 55 -38 75.5t-42 25.5q-34 8 -60 -8q-25 -16 -37 -41q-9 -28 2 -54q19 -38 89 -94q125 -109 133 -194q6 -77 -23 -152q-49 -116 -149 -172z" />
    <glyph glyph-name="t" unicode="t" horiz-adv-x="868" 
d="M602 -43q-72 -35 -139 -35q-81 0 -131 47q-53 50 -53 115q-3 53 26 190l80 371h-109l29 133h107l49 232h221l-49 -232h221l-27 -133h-223l-84 -397q-20 -100 -20 -127q3 -22 14 -33q15 -12 33 -12q20 0 45 18t72 72l90 -62q-74 -109 -152 -147z" />
    <glyph glyph-name="u" unicode="u" horiz-adv-x="1097" 
d="M872 -55h-219l15 67q-122 -90 -254 -90q-90 0 -146 39q-60 42 -75 105q-11 59 10 163l53 252l63 297h222l-117 -555q-14 -71 -14 -98q0 -15 20 -35q22 -16 55 -16q55 0 113 37q63 38 88 77q29 45 45 125l35 168l63 297h222l-113 -528z" />
    <glyph glyph-name="v" unicode="v" horiz-adv-x="1079" 
d="M1135 778l-562 -856h-112l-205 856h242l131 -559l362 559h144z" />
    <glyph glyph-name="w" unicode="w" horiz-adv-x="1636" 
d="M1688 780l-562 -858h-112l-109 459l-301 -459h-110l-205 858h241l132 -559l284 438h133l103 -438l362 559h144z" />
    <glyph glyph-name="x" unicode="x" horiz-adv-x="1167" 
d="M1057 -47h-289l-176 301l-322 -301h-186l444 407l-260 439h287l156 -271l293 271h186l-416 -373z" />
    <glyph glyph-name="y" unicode="y" horiz-adv-x="1054" 
d="M1102 743l-856 -1308h-137l319 493l-192 815h239l129 -550l357 550h141z" />
    <glyph glyph-name="z" unicode="z" horiz-adv-x="1019" 
d="M1014 705l-582 -617h447l-19 -88l-37 47q-5 -26 -81.5 -45.5t-182 -28.5t-210.5 -14t-178 -5l-73 -1l19 90l585 621h-421l28 135h725z" />
    <glyph glyph-name="braceleft" unicode="{" 
 />
    <glyph glyph-name="bar" unicode="|" 
 />
    <glyph glyph-name="braceright" unicode="}" 
 />
    <glyph glyph-name="asciitilde" unicode="~" 
 />
    <glyph glyph-name="DEL" horiz-adv-x="540" 
 />
    <glyph glyph-name="uni00A0" unicode="&#xa0;" 
 />
    <glyph glyph-name="exclamdown" unicode="&#xa1;" 
 />
    <glyph glyph-name="cent" unicode="&#xa2;" 
 />
    <glyph glyph-name="sterling" unicode="&#xa3;" 
 />
    <glyph glyph-name="yen" unicode="&#xa5;" 
 />
    <glyph glyph-name="brokenbar" unicode="&#xa6;" 
 />
    <glyph glyph-name="section" unicode="&#xa7;" 
 />
    <glyph glyph-name="dieresis" unicode="&#xa8;" 
 />
    <glyph glyph-name="copyright" unicode="&#xa9;" 
 />
    <glyph glyph-name="ordfeminine" unicode="&#xaa;" 
 />
    <glyph glyph-name="guillemotleft" unicode="&#xab;" 
 />
    <glyph glyph-name="logicalnot" unicode="&#xac;" 
 />
    <glyph glyph-name="registered" unicode="&#xae;" 
 />
    <glyph glyph-name="degree" unicode="&#xb0;" 
 />
    <glyph glyph-name="plusminus" unicode="&#xb1;" 
 />
    <glyph glyph-name="twosuperior" unicode="&#xb2;" 
 />
    <glyph glyph-name="threesuperior" unicode="&#xb3;" 
 />
    <glyph glyph-name="acute" unicode="&#xb4;" 
 />
    <glyph glyph-name="mu" unicode="&#xb5;" 
 />
    <glyph glyph-name="paragraph" unicode="&#xb6;" 
 />
    <glyph glyph-name="periodcentered" unicode="&#xb7;" horiz-adv-x="540" 
 />
    <glyph glyph-name="onesuperior" unicode="&#xb9;" 
 />
    <glyph glyph-name="ordmasculine" unicode="&#xba;" 
 />
    <glyph glyph-name="guillemotright" unicode="&#xbb;" 
 />
    <glyph glyph-name="onequarter" unicode="&#xbc;" 
 />
    <glyph glyph-name="onehalf" unicode="&#xbd;" 
 />
    <glyph glyph-name="threequarters" unicode="&#xbe;" 
 />
    <glyph glyph-name="questiondown" unicode="&#xbf;" 
 />
    <glyph glyph-name="Agrave" unicode="&#xc0;" horiz-adv-x="1193" 
d="M874 635l-92 452l-278 -452h370zM1337 -47h-329l-60 299l-47 244h-479l-324 -543h-176l981 1567h103zM1094 1593h-197l-176 256h231z" />
    <glyph glyph-name="Aacute" unicode="&#xc1;" horiz-adv-x="1193" 
d="M874 635l-92 452l-278 -452h370zM1337 -47h-329l-60 299l-47 244h-479l-324 -543h-176l981 1567h103zM1323 1849l-285 -256h-194l250 256h229z" />
    <glyph glyph-name="Acircumflex" unicode="&#xc2;" horiz-adv-x="540" 
 />
    <glyph glyph-name="Atilde" unicode="&#xc3;" horiz-adv-x="540" 
 />
    <glyph glyph-name="Adieresis" unicode="&#xc4;" 
 />
    <glyph glyph-name="Aring" unicode="&#xc5;" 
 />
    <glyph glyph-name="AE" unicode="&#xc6;" 
 />
    <glyph glyph-name="Ccedilla" unicode="&#xc7;" 
 />
    <glyph glyph-name="Egrave" unicode="&#xc8;" horiz-adv-x="1120" 
d="M1200 1378h-498h-151l-57 -270l-9 -43l-47 -219h103h323l-30 -141h-318h-108l-29 -136l-6 -32l-13 -56l-20 -102l-61 -283h147h498l-31 -141h-948l90 424l20 102l21 88l114 541l86 412h953zM961 1593h-197l-176 256h231z" />
    <glyph glyph-name="Eacute" unicode="&#xc9;" horiz-adv-x="1120" 
d="M1200 1378h-498h-151l-57 -270l-9 -43l-47 -219h103h323l-30 -141h-318h-108l-29 -136l-6 -32l-13 -56l-20 -102l-61 -283h147h498l-31 -141h-948l90 424l20 102l21 88l114 541l86 412h953zM1133 1849l-285 -256h-195l250 256h230z" />
    <glyph glyph-name="Ecircumflex" unicode="&#xca;" horiz-adv-x="540" 
 />
    <glyph glyph-name="Edieresis" unicode="&#xcb;" horiz-adv-x="540" 
 />
    <glyph glyph-name="Igrave" unicode="&#xcc;" horiz-adv-x="540" 
 />
    <glyph glyph-name="Iacute" unicode="&#xcd;" horiz-adv-x="540" 
 />
    <glyph glyph-name="Icircumflex" unicode="&#xce;" horiz-adv-x="540" 
 />
    <glyph glyph-name="Idieresis" unicode="&#xcf;" horiz-adv-x="540" 
 />
    <glyph glyph-name="Eth" unicode="&#xd0;" 
 />
    <glyph glyph-name="Ntilde" unicode="&#xd1;" 
 />
    <glyph glyph-name="Ograve" unicode="&#xd2;" horiz-adv-x="1800" 
d="M1319 1217q-46 82 -116 120.5t-187 38.5q-111 0 -184 -35t-160 -120q-162 -162 -228 -482q-71 -323 23 -485q48 -84 111 -120t182 -36q105 0 187 37.5t167 118.5q73 72 120.5 187t86.5 296q25 116 34 200.5t1 156.5t-37 123zM1307 172q-141 -113 -277.5 -166t-314.5 -53
q-173 0 -285 52t-209 165q-182 218 -108 578q75 349 354 561q145 109 277.5 160t299.5 51q170 0 282 -49.5t212 -157.5q194 -215 117 -574q-75 -352 -348 -567zM1219 1593h-197l-176 256h231z" />
    <glyph glyph-name="Oacute" unicode="&#xd3;" horiz-adv-x="1800" 
d="M1319 1217q-46 82 -116 120.5t-187 38.5q-111 0 -184 -35t-160 -120q-162 -162 -228 -482q-71 -323 23 -485q48 -84 111 -120t182 -36q105 0 187 37.5t167 118.5q73 72 120.5 187t86.5 296q25 116 34 200.5t1 156.5t-37 123zM1307 172q-141 -113 -277.5 -166t-314.5 -53
q-173 0 -285 52t-209 165q-182 218 -108 578q75 349 354 561q145 109 277.5 160t299.5 51q170 0 282 -49.5t212 -157.5q194 -215 117 -574q-75 -352 -348 -567zM1425 1849l-284 -256h-195l250 256h229z" />
    <glyph glyph-name="Ocircumflex" unicode="&#xd4;" horiz-adv-x="540" 
 />
    <glyph glyph-name="Otilde" unicode="&#xd5;" horiz-adv-x="540" 
 />
    <glyph glyph-name="Odieresis" unicode="&#xd6;" 
 />
    <glyph glyph-name="multiply" unicode="&#xd7;" 
 />
    <glyph glyph-name="Oslash" unicode="&#xd8;" 
 />
    <glyph glyph-name="Ugrave" unicode="&#xd9;" horiz-adv-x="1531" 
d="M1270 360q-35 -92 -144 -198q-99 -99 -245 -154t-320 -55q-199 0 -334 72q-126 69 -170 190q-41 129 9 305l40 150l97 450l84 400h303l-86 -400l-98 -458q-37 -181 -41 -203q-17 -94 -17 -125q3 -91 68 -148q74 -65 231 -65q129 0 234 45q111 45 170 110q66 69 90 134
q46 131 71 241l105 496l80 373h141l-82 -392l-104 -485q-32 -150 -82 -283zM1180 1593h-197l-176 256h231z" />
    <glyph glyph-name="Uacute" unicode="&#xda;" horiz-adv-x="1531" 
d="M1270 360q-35 -92 -144 -198q-99 -99 -245 -154t-320 -55q-199 0 -334 72q-126 69 -170 190q-41 129 9 305l40 150l97 450l84 400h303l-86 -400l-98 -458q-37 -181 -41 -203q-17 -94 -17 -125q3 -91 68 -148q74 -65 231 -65q129 0 234 45q111 45 170 110q66 69 90 134
q46 131 71 241l105 496l80 373h141l-82 -392l-104 -485q-32 -150 -82 -283zM1323 1849l-285 -256h-194l250 256h229z" />
    <glyph glyph-name="Ucircumflex" unicode="&#xdb;" horiz-adv-x="540" 
 />
    <glyph glyph-name="Udieresis" unicode="&#xdc;" 
 />
    <glyph glyph-name="Yacute" unicode="&#xdd;" 
 />
    <glyph glyph-name="Thorn" unicode="&#xde;" 
 />
    <glyph glyph-name="germandbls" unicode="&#xdf;" 
 />
    <glyph glyph-name="agrave" unicode="&#xe0;" horiz-adv-x="1298" 
d="M811 180l43 203l-39 -14q-224 -82 -248 -197q-8 -40 6 -61q13 -19 39 -19q28 0 84 23q47 21 115 65zM758 -66l16 76l2 13q-166 -91 -272 -91q-58 0 -100.5 39t-58 89.5t-7.5 93.5q12 59 41 101t90 83q113 73 293 141l121 45l2 6q15 74 12 99q0 16 -25 35q-27 20 -79 20
q-48 0 -83.5 -12t-91.5 -45l-75 98q88 50 154.5 70t142.5 20q126 0 192 -41q66 -43 80 -104q13 -51 -10 -160l-64 -299l-59 -279q-49 2 -221 2zM1057 905h-195l-176 256h232z" />
    <glyph glyph-name="aacute" unicode="&#xe1;" horiz-adv-x="1300" 
d="M811 180l43 203l-39 -14q-224 -82 -248 -197q-8 -40 6 -61q13 -19 39 -19q28 0 84 23q47 21 115 65zM758 -66l16 76l2 13q-166 -91 -272 -91q-58 0 -100.5 39t-58 89.5t-7.5 93.5q12 59 41 101t90 83q113 73 293 141l121 45l2 6q15 74 12 99q0 16 -25 35q-27 20 -79 20
q-48 0 -83.5 -12t-91.5 -45l-75 98q88 50 154.5 70t142.5 20q126 0 192 -41q66 -43 80 -104q13 -51 -10 -160l-64 -299l-59 -279q-49 2 -221 2zM1204 1161l-284 -256h-197l250 256h231z" />
    <glyph glyph-name="acircumflex" unicode="&#xe2;" horiz-adv-x="540" 
 />
    <glyph glyph-name="atilde" unicode="&#xe3;" horiz-adv-x="540" 
 />
    <glyph glyph-name="adieresis" unicode="&#xe4;" horiz-adv-x="540" 
 />
    <glyph glyph-name="aring" unicode="&#xe5;" horiz-adv-x="540" 
 />
    <glyph glyph-name="ae" unicode="&#xe6;" 
 />
    <glyph glyph-name="ccedilla" unicode="&#xe7;" horiz-adv-x="540" 
 />
    <glyph glyph-name="egrave" unicode="&#xe8;" horiz-adv-x="1026" 
d="M932 676q-106 0 -162 -111h279q-4 45 -31.5 78t-85.5 33zM1231 438h-506q-1 -6 -2.5 -12l-3 -12t-2.5 -8q-39 -182 -2 -269q31 -76 125 -76q61 0 113 29.5t118 104.5l76 -99q-71 -80 -139 -116q-107 -58 -224 -58q-110 0 -186 53q-85 54 -121 150q-40 98 -10 231
q42 196 182 322q143 131 318 131q167 0 235 -104q36 -51 42.5 -111t-13.5 -156zM1159 905h-194l-177 256h232z" />
    <glyph glyph-name="eacute" unicode="&#xe9;" horiz-adv-x="1028" 
d="M932 676q-106 0 -162 -111h279q-4 45 -31.5 78t-85.5 33zM1231 438h-506q-1 -6 -2.5 -12l-3 -12t-2.5 -8q-39 -182 -2 -269q31 -76 125 -76q61 0 113 29.5t118 104.5l76 -99q-71 -80 -139 -116q-107 -58 -224 -58q-110 0 -186 53q-85 54 -121 150q-40 98 -10 231
q42 196 182 322q143 131 318 131q167 0 235 -104q36 -51 42.5 -111t-13.5 -156zM1327 1161l-285 -256h-196l250 256h231z" />
    <glyph glyph-name="ecircumflex" unicode="&#xea;" horiz-adv-x="540" 
 />
    <glyph glyph-name="edieresis" unicode="&#xeb;" horiz-adv-x="540" 
 />
    <glyph glyph-name="igrave" unicode="&#xec;" horiz-adv-x="913" 
d="M698 485l-49 -227l-65 -305h-224l66 305l29 133l92 438h65h158l-70 -331h-47q21 0 32 -3t12 -7zM799 905h-197l-145 258l252 -2z" />
    <glyph glyph-name="iacute" unicode="&#xed;" horiz-adv-x="958" 
d="M537 -47h-226l66 305l49 227l2 13l70 331h157h66l-92 -438l-29 -133zM954 1163l-256 -258h-196l198 256z" />
    <glyph glyph-name="icircumflex" unicode="&#xee;" horiz-adv-x="540" 
 />
    <glyph glyph-name="idieresis" unicode="&#xef;" horiz-adv-x="540" 
 />
    <glyph glyph-name="eth" unicode="&#xf0;" 
 />
    <glyph glyph-name="ntilde" unicode="&#xf1;" horiz-adv-x="540" 
 />
    <glyph glyph-name="ograve" unicode="&#xf2;" horiz-adv-x="1087" 
d="M997 612q-31 64 -118 64q-85 0 -146 -64q-75 -83 -112 -250q-37 -170 8 -247q31 -60 119 -60q85 0 145 60q75 78 111 247q36 165 -7 250zM1038 41q-146 -119 -319 -119t-268 121q-95 124 -54 324q41 188 187 313q147 129 323 129q177 0 269 -129q94 -128 53 -313
q-45 -206 -191 -326zM1102 905h-195l-176 256h232z" />
    <glyph glyph-name="oacute" unicode="&#xf3;" horiz-adv-x="1087" 
d="M997 612q-31 64 -118 64q-85 0 -146 -64q-75 -83 -112 -250q-37 -170 8 -247q31 -60 119 -60q85 0 145 60q75 78 111 247q36 165 -7 250zM1038 41q-146 -119 -319 -119t-268 121q-95 124 -54 324q41 188 187 313q147 129 323 129q177 0 269 -129q94 -128 53 -313
q-45 -206 -191 -326zM1249 1161l-284 -256h-197l250 256h231z" />
    <glyph glyph-name="ocircumflex" unicode="&#xf4;" horiz-adv-x="540" 
 />
    <glyph glyph-name="otilde" unicode="&#xf5;" horiz-adv-x="540" 
 />
    <glyph glyph-name="odieresis" unicode="&#xf6;" horiz-adv-x="540" 
 />
    <glyph glyph-name="divide" unicode="&#xf7;" horiz-adv-x="540" 
 />
    <glyph glyph-name="oslash" unicode="&#xf8;" 
 />
    <glyph glyph-name="ugrave" unicode="&#xf9;" horiz-adv-x="1398" 
d="M1092 -55h-222l15 67q-119 -90 -254 -90q-90 0 -146 39q-61 42 -73 105q-13 52 10 163l53 252l64 297h221l-119 -555q-14 -71 -14 -98q4 -19 20 -35q22 -16 55 -16q54 0 115 37q61 39 86 77q29 45 45 125l37 168l64 297h219l-113 -528zM1081 905h-194l-176 256h231z" />
    <glyph glyph-name="uacute" unicode="&#xfa;" horiz-adv-x="1400" 
d="M1092 -55h-222l15 67q-119 -90 -254 -90q-90 0 -146 39q-61 42 -73 105q-13 52 10 163l53 252l64 297h221l-119 -555q-14 -71 -14 -98q4 -19 20 -35q22 -16 55 -16q54 0 115 37q61 39 86 77q29 45 45 125l37 168l64 297h219l-113 -528zM1249 1161l-284 -256h-197l250 256
h231z" />
    <glyph glyph-name="ucircumflex" unicode="&#xfb;" 
 />
    <glyph glyph-name="udieresis" unicode="&#xfc;" 
 />
    <glyph glyph-name="yacute" unicode="&#xfd;" 
 />
    <glyph glyph-name="thorn" unicode="&#xfe;" 
 />
    <glyph glyph-name="ydieresis" unicode="&#xff;" horiz-adv-x="540" 
 />
    <glyph glyph-name="Lslash" unicode="&#x141;" 
 />
    <glyph glyph-name="lslash" unicode="&#x142;" 
 />
    <glyph glyph-name="OE" unicode="&#x152;" horiz-adv-x="540" 
 />
    <glyph glyph-name="oe" unicode="&#x153;" horiz-adv-x="540" 
 />
    <glyph glyph-name="Scaron" unicode="&#x160;" 
 />
    <glyph glyph-name="scaron" unicode="&#x161;" 
 />
    <glyph glyph-name="Ydieresis" unicode="&#x178;" horiz-adv-x="540" 
 />
    <glyph glyph-name="Zcaron" unicode="&#x17d;" 
 />
    <glyph glyph-name="zcaron" unicode="&#x17e;" 
 />
    <glyph glyph-name="florin" unicode="&#x192;" 
 />
    <glyph glyph-name="pi" unicode="&#x3c0;" 
 />
    <glyph glyph-name="endash" unicode="&#x2013;" horiz-adv-x="540" 
 />
    <glyph glyph-name="emdash" unicode="&#x2014;" horiz-adv-x="540" 
 />
    <glyph glyph-name="quoteleft" unicode="&#x2018;" horiz-adv-x="466" 
d="M885 1497l-434 -706h-166l366 706h234z" />
    <glyph glyph-name="quoteright" unicode="&#x2019;" horiz-adv-x="466" 
d="M885 1497l-434 -706h-166l366 706h234z" />
    <glyph glyph-name="quotesinglbase" unicode="&#x201a;" horiz-adv-x="540" 
 />
    <glyph glyph-name="quotedblleft" unicode="&#x201c;" horiz-adv-x="1232" 
d="M885 1497l-434 -706h-166l366 706h234zM1399 1497l-434 -706h-166l366 706h234z" />
    <glyph glyph-name="quotedblright" unicode="&#x201d;" horiz-adv-x="1232" 
d="M885 1497l-434 -706h-166l366 706h234zM1399 1497l-434 -706h-166l366 706h234z" />
    <glyph glyph-name="quotedblbase" unicode="&#x201e;" horiz-adv-x="540" 
 />
    <glyph glyph-name="dagger" unicode="&#x2020;" 
 />
    <glyph glyph-name="daggerdbl" unicode="&#x2021;" horiz-adv-x="540" 
 />
    <glyph glyph-name="bullet" unicode="&#x2022;" 
 />
    <glyph glyph-name="ellipsis" unicode="&#x2026;" 
 />
    <glyph glyph-name="perthousand" unicode="&#x2030;" horiz-adv-x="540" 
 />
    <glyph glyph-name="guilsinglleft" unicode="&#x2039;" horiz-adv-x="540" 
 />
    <glyph glyph-name="guilsinglright" unicode="&#x203a;" horiz-adv-x="540" 
 />
    <glyph glyph-name="fraction" unicode="&#x2044;" horiz-adv-x="2641" 
d="M2707 1473l-942 -1543h-315l944 1543h313z" />
    <glyph glyph-name="Euro" unicode="&#x20ac;" horiz-adv-x="540" 
 />
    <glyph glyph-name="trademark" unicode="&#x2122;" 
 />
    <glyph glyph-name="Omega" unicode="&#x2126;" 
 />
    <glyph glyph-name="partialdiff" unicode="&#x2202;" 
 />
    <glyph glyph-name="Delta" unicode="&#x2206;" 
 />
    <glyph glyph-name="product" unicode="&#x220f;" 
 />
    <glyph glyph-name="summation" unicode="&#x2211;" 
 />
    <glyph glyph-name="minus" unicode="&#x2212;" horiz-adv-x="2299" 
d="M2400 311h-559l49 228h559z" />
    <glyph glyph-name="radical" unicode="&#x221a;" 
 />
    <glyph glyph-name="infinity" unicode="&#x221e;" 
 />
    <glyph glyph-name="integral" unicode="&#x222b;" 
 />
    <glyph glyph-name="approxequal" unicode="&#x2248;" 
 />
    <glyph glyph-name="notequal" unicode="&#x2260;" 
 />
    <glyph glyph-name="lessequal" unicode="&#x2264;" 
 />
    <glyph glyph-name="greaterequal" unicode="&#x2265;" 
 />
    <glyph glyph-name="lozenge" unicode="&#x25ca;" horiz-adv-x="540" 
 />
    <glyph glyph-name="apple" unicode="&#xf8ff;" horiz-adv-x="540" 
 />
    <glyph glyph-name="fi" unicode="&#xfb01;" horiz-adv-x="540" 
 />
    <glyph glyph-name="fl" unicode="&#xfb02;" horiz-adv-x="540" 
 />
    </font>
</defs>
</svg>
