<?xml version="1.0" standalone="no"?>
<!DOCTYPE svg PUBLIC "-//W3C//DTD SVG 1.1//EN" "http://www.w3.org/Graphics/SVG/1.1/DTD/svg11.dtd" >
<svg xmlns="http://www.w3.org/2000/svg" xmlns:xlink="http://www.w3.org/1999/xlink" version="1.1">
<metadata>
Created by FontForge 20201107 at Fri Feb 23 09:22:57 2024
 By 
Copyright (c) 2016 by Cristina Pagnotta. All rights reserved.
</metadata>
<defs>
<font id="Audrey-Bold" horiz-adv-x="2048" >
  <font-face 
    font-family="Audrey"
    font-weight="700"
    font-stretch="normal"
    units-per-em="2048"
    panose-1="0 0 0 0 0 0 0 0 0 0"
    ascent="1415"
    descent="-633"
    x-height="743"
    cap-height="1520"
    bbox="-70 -588 2593 1849"
    underline-thickness="102"
    underline-position="-204"
    unicode-range="U+0009-FB02"
  />
<missing-glyph 
 />
    <glyph glyph-name=".notdef" 
 />
    <glyph glyph-name=".null" horiz-adv-x="0" 
 />
    <glyph glyph-name="nonmarkingreturn" horiz-adv-x="682" 
 />
    <glyph glyph-name="HT" unicode="&#x9;" 
 />
    <glyph glyph-name="LF" unicode="&#xa;" 
 />
    <glyph glyph-name="CR" unicode="&#xd;" 
 />
    <glyph glyph-name="DLE" 
 />
    <glyph glyph-name="DC1" 
 />
    <glyph glyph-name="DC2" 
 />
    <glyph glyph-name="DC3" 
 />
    <glyph glyph-name="DC4" 
 />
    <glyph glyph-name="RS" 
 />
    <glyph glyph-name="US" 
 />
    <glyph glyph-name="space" unicode=" " horiz-adv-x="540" 
 />
    <glyph glyph-name="exclam" unicode="!" horiz-adv-x="636" 
d="M418 -39q-48 -45 -113 -45t-112 47q-46 49 -46 111q0 64 48 112q48 45 110 45q68 0 113 -45q47 -47 47 -112q0 -66 -47 -113zM438 1135l-65 -787h-131l-64 787q-13 153 -22 311h305q-4 -74 -13 -184t-10 -127z" />
    <glyph glyph-name="quotedbl" unicode="&#x22;" horiz-adv-x="1232" 
d="M567 1497l-282 -706h-168l217 706h233zM1081 1497l-282 -706h-168l217 706h233z" />
    <glyph glyph-name="numbersign" unicode="#" horiz-adv-x="1566" 
d="M1456 537l-70 -213h-1290l62 159zM965 1425l-584 -1519h-168l524 1519h228zM1501 1425l-586 -1519h-167l526 1519h227zM1565 1024l-72 -213h-1290l63 158z" />
    <glyph glyph-name="dollar" unicode="$" horiz-adv-x="901" 
d="M592 2v383q-6 3 -38.5 23t-53.5 32q-15 8 -25 15v-453q65 -13 117 0zM735 369v-213q2 4 2 10q9 75 -37 127q-7 11 -41 41zM592 713v374q-27 10 -53 13q-40 3 -64 -2v-307q31 -25 117 -78zM735 969v-342q62 -40 86 -60q77 -59 117 -149q42 -88 29 -205q-18 -175 -152 -276
q-42 -30 -80 -46v-124h-143v92q-54 -3 -100 2q-13 0 -17 2v-96h-145v145q-146 76 -236 221l96 107q87 -123 140 -170v475q-2 2 -20.5 15t-26.5 20q-81 65 -117 153q-38 87 -29 191q15 150 133 239q25 20 60 37v133h145v-96q55 3 117 -10v106h143v-164q59 -39 139 -149
l-112 -92q-21 33 -27 41z" />
    <glyph glyph-name="percent" unicode="%" horiz-adv-x="1634" 
d="M393 1266q-23 37 -55 37q-34 0 -57 -37q-16 -24 -29.5 -90t-13.5 -164q0 -97 13.5 -162t29.5 -92q22 -35 57 -35q23 0 35 8t22 31q41 102 41 250q0 97 -13.5 163.5t-29.5 90.5zM1458 637q-23 37 -57 37q-32 0 -55 -37q-16 -24 -29.5 -90t-13.5 -164t13 -163.5t30 -90.5
q13 -21 25 -28t30 -7q24 0 36.5 8t22.5 31q41 103 41 250q0 97 -13.5 163.5t-29.5 90.5zM553 713q-80 -127 -215 -127q-134 0 -217 127q-76 116 -76 299q0 182 76 301q84 125 217 125q132 0 215 -127q76 -112 76 -299q0 -184 -76 -299zM1368 1436l-797 -1483h-168l801 1483
h164zM1618 84q-83 -127 -217 -127q-132 0 -215 127q-76 116 -76 299q0 182 76 301q84 125 215 125q134 0 217 -127q76 -116 76 -299q0 -180 -76 -299z" />
    <glyph glyph-name="ampersand" unicode="&#x26;" horiz-adv-x="1097" 
d="M696 236l-344 460q-58 -45 -108 -118q-51 -77 -51 -148q0 -133 75 -213q88 -98 205 -98q112 0 223 117zM596 1212q-16 51 -64 72q-23 10 -49 10q-58 0 -88 -34q-33 -41 -33 -95q0 -37 28 -85.5t89 -131.5q127 86 127 203q0 31 -10 61zM928 -82l-146 199l-41 -43
q-173 -149 -358 -152q-70 0 -152 31q-77 29 -141 90q-57 49 -102 137q-37 75 -37 176q3 150 82 250q77 98 233 209q-127 183 -127 297q0 123 97 225q94 99 243 99q141 0 232 -74q96 -78 96 -203q0 -190 -242 -328l307 -405l181 195h121l24 -56l-237 -258l290 -389h-323z" />
    <glyph glyph-name="quotesingle" unicode="'" horiz-adv-x="716" 
d="M567 1477l-282 -707h-168l217 707h233z" />
    <glyph glyph-name="parenleft" unicode="(" horiz-adv-x="724" 
d="M594 -428h-156q-297 368 -297 799q0 206 72 394t217 374h176q-33 -40 -67 -97t-71 -148t-62 -193t-33 -234t8 -269t69.5 -300.5t143.5 -325.5z" />
    <glyph glyph-name="parenright" unicode=")" horiz-adv-x="827" 
d="M358 -428h-176q33 39 67.5 97t71.5 148.5t62.5 192.5t33 234t-8.5 269t-69.5 300.5t-143.5 325.5h155q297 -368 297 -799q0 -207 -72 -395t-217 -373z" />
    <glyph glyph-name="asterisk" unicode="*" horiz-adv-x="1431" 
d="M1151 901l-162 -278q-105 86 -133 110l-115 96l29 -147q16 -94 27 -174h-318q12 98 27 174l29 149l-115 -96q-28 -25 -135 -112l-160 278q146 56 164 62l141 49l-141 51q-78 26 -164 59l160 279q29 -24 60 -49.5t49.5 -40.5t25.5 -21l112 -98l-26 145q-23 130 -29 172
h322q-11 -71 -31 -172l-27 -145l115 98q44 39 133 111l162 -279q-104 -39 -164 -59l-143 -51l143 -49q7 -3 164 -62z" />
    <glyph glyph-name="plus" unicode="+" horiz-adv-x="962" 
d="M1047 555h-406v-418h-190v418h-406v178h406v418h190v-418h406v-178z" />
    <glyph glyph-name="comma" unicode="," horiz-adv-x="759" 
d="M604 201l-317 -676h-176l243 676h250z" />
    <glyph glyph-name="hyphen" unicode="-" horiz-adv-x="913" 
d="M719 311h-559v228h559v-228z" />
    <glyph glyph-name="period" unicode="." horiz-adv-x="671" 
d="M422 -35q-47 -47 -111 -47q-66 0 -112 49q-45 45 -45 111q0 62 45 110q48 48 112 48q65 0 113 -48q45 -45 45 -110q0 -69 -47 -113z" />
    <glyph glyph-name="slash" unicode="/" horiz-adv-x="1157" 
d="M1112 1473l-750 -1543h-317l752 1543h315z" />
    <glyph glyph-name="zero" unicode="0" horiz-adv-x="1390" 
d="M840 1255q-32 48 -65.5 68t-80.5 20q-46 0 -80 -20t-65 -68q-36 -56 -64 -189.5t-28 -328.5t27.5 -328.5t64.5 -189.5q32 -49 65 -68.5t80 -19.5q59 0 93.5 23.5t60.5 81.5q17 35 33.5 87t33.5 166.5t17 247.5q0 196 -28 330t-64 188zM1079 182q-76 -116 -169.5 -172.5
t-215.5 -56.5q-234 0 -383 227q-139 211 -139 557q0 348 139 559q77 115 169.5 169.5t213.5 54.5q122 0 214.5 -55.5t168.5 -170.5q142 -212 142 -557q0 -342 -140 -555z" />
    <glyph glyph-name="one" unicode="1" horiz-adv-x="1390" 
d="M913 -47h-59h-147h-95v1415l-32 -2h-103v96v58h436v-95v-1472z" />
    <glyph glyph-name="two" unicode="2" horiz-adv-x="1390" 
d="M1128 801q-66 -123 -311 -359q-92 -89 -217 -190h580v-94v-205h-47h-9h-202h-521h-208v119l4 55q100 73 159 119q93 76 183 168q197 206 280 354q82 140 82 283q0 164 -74 235q-74 74 -186 74q-91 0 -170 -68q-44 -38 -70 -86l-24 -43l-160 74l33 51q53 80 115 125
q146 107 329 107q191 0 344 -111q160 -121 160 -344q0 -142 -70 -264z" />
    <glyph glyph-name="three" unicode="3" horiz-adv-x="1390" 
d="M866 868q79 -24 156 -108q111 -123 111 -305q0 -219 -162 -363q-83 -74 -171.5 -106.5t-203.5 -32.5q-98 0 -199 33l-98 32l164 158l45 -26q42 -23 84 -23q110 0 180 76q72 79 72 256q0 139 -51 200q-47 56 -105 56q-31 0 -78 -31l-51 -37l-113 156l56 37q13 10 30 20
q171 110 218 172q43 59 43 150q0 80 -41 121q-37 40 -111 40q-75 0 -137 -47q-31 -25 -43 -55l-29 -72l-194 117l41 57q28 36 63 68q124 109 330 109q96 0 164.5 -21.5t128.5 -73.5q116 -96 116 -223q0 -112 -80 -201q-74 -87 -135 -133z" />
    <glyph glyph-name="four" unicode="4" horiz-adv-x="1390" 
d="M643 608v410l-293 -410h293zM1260 440h-60h-239v-487h-62h-158h-98v487h-117h-395v123q4 13 174 252t338 472l168 233h150v-283v-629h299v-168z" />
    <glyph glyph-name="five" unicode="5" horiz-adv-x="1390" 
d="M975 117q-154 -164 -430 -164q-108 0 -205 33l-78 28l150 144l34 -25q40 -29 103 -29q119 0 203 93q86 96 86 319q0 203 -68 281q-66 75 -154 75q-117 0 -198 -129q-18 -11 -57.5 -17t-70.5 -6l-30 -1v555v141v12v93h731v-293h-67h-13h-125h-362v-264q106 73 227 73
q199 0 340 -147q139 -148 139 -365q0 -245 -155 -407z" />
    <glyph glyph-name="six" unicode="6" horiz-adv-x="1390" 
d="M901 670q-18 53 -72 92q-52 37 -114 37q-86 0 -158 -66q-68 -65 -68 -250q0 -86 29 -184q23 -77 80 -125q49 -43 117 -43q102 0 151 76q58 91 58 276q0 120 -23 187zM498 905q110 74 235 74q206 0 354 -145q75 -74 100 -164t25 -201q0 -106 -24 -194.5t-94 -165.5
q-147 -156 -367 -156q-189 0 -321 117q-129 111 -179 276q-49 157 -49 330q0 353 166 592q172 252 463 252q46 0 119 -15l73 -16l-67 -176l-60 18q-30 10 -94 10q-138 0 -205 -114q-66 -111 -75 -322z" />
    <glyph glyph-name="seven" unicode="7" horiz-adv-x="1390" 
d="M1174 1520l-46 -129q-466 -1314 -507 -1407q-20 -14 -53 -21.5t-56 -8.5l-23 -1h-73l24 72q32 85 207 557.5t236 640.5h-348h-27h-272v190v12v95h938z" />
    <glyph glyph-name="eight" unicode="8" horiz-adv-x="1390" 
d="M836 623q-56 53 -152 53q-89 0 -135 -62q-51 -74 -51 -204q0 -100 20 -168q10 -45 57 -80q48 -33 113 -33q93 0 148 49q55 48 55 219t-55 226zM807 1296q-43 52 -117 52q-65 0 -110 -48q-45 -52 -45 -170q0 -156 43 -221q35 -55 106 -55q87 0 125 53q45 61 45 205
q0 124 -47 184zM1028 70q-143 -117 -334 -117q-196 0 -338 125q-145 127 -145 317q0 167 104 283q53 58 117 96q-35 24 -80 76q-96 113 -96 260q0 181 131 297q127 113 307 113q166 0 301 -109q142 -115 142 -301q0 -145 -90 -258q-31 -39 -84 -78q43 -25 92 -74
q125 -116 125 -299q0 -209 -152 -331z" />
    <glyph glyph-name="nine" unicode="9" horiz-adv-x="1390" 
d="M879 1176q-26 79 -80 124q-51 43 -117 43q-103 0 -152 -73q-71 -108 -71 -279q0 -77 35 -184q21 -56 73 -94q49 -37 115 -37q88 0 156 65q67 64 67 250q0 86 -26 185zM899 569q-112 -73 -237 -73q-207 0 -355 145q-135 138 -135 365q0 220 131 360q145 154 367 154
q191 0 321 -115q124 -109 178 -277q50 -161 50 -329q0 -350 -166 -592q-173 -254 -465 -254q-128 0 -234 53l-80 43l170 160l43 -53q7 -9 17.5 -14.5t26.5 -7t26.5 -2t32 0t28.5 0.5q138 0 205 117q64 110 76 319z" />
    <glyph glyph-name="colon" unicode=":" horiz-adv-x="649" 
d="M424 -35q-47 -47 -113 -47t-112 49q-45 48 -45 111t47 110q45 48 110 48t113 -48q47 -47 47 -110q0 -66 -47 -113zM424 690q-47 -47 -113 -47t-112 49q-45 48 -45 111t45 108q44 50 112 50q65 0 113 -48q47 -47 47 -110q0 -66 -47 -113z" />
    <glyph glyph-name="semicolon" unicode=";" horiz-adv-x="763" 
d="M600 186l-315 -675h-179l244 675h250zM571 690q-47 -47 -112 -47q-67 0 -113 49q-45 48 -45 111t45 108q44 50 113 50q64 0 112 -48q47 -47 47 -110q0 -66 -47 -113z" />
    <glyph glyph-name="less" unicode="&#x3c;" horiz-adv-x="540" 
 />
    <glyph glyph-name="equal" unicode="=" horiz-adv-x="2836" 
d="M2515 446h-1002v191h1002v-191zM2515 778h-1002v191h1002v-191z" />
    <glyph glyph-name="greater" unicode="&#x3e;" horiz-adv-x="540" 
 />
    <glyph glyph-name="question" unicode="?" horiz-adv-x="927" 
d="M391 -31q-47 -47 -112 -47q-67 0 -113 49q-45 45 -45 111q0 65 45 113q45 45 113 45q67 0 112 -45q47 -47 47 -113t-47 -113zM690 760q-96 -107 -233 -107q-53 0 -90 11l-23 -314h-135l-14 490h159q33 -33 62 -33q52 0 80 55q34 67 34 219q0 131 -51 185q-53 53 -117 53
q-35 0 -63 -8t-70 -35l-112 110q85 41 141 56.5t113 15.5q194 0 307 -131q94 -112 94 -307q0 -173 -82 -260z" />
    <glyph glyph-name="at" unicode="@" horiz-adv-x="550" 
 />
    <glyph glyph-name="A" unicode="A" horiz-adv-x="1619" 
d="M887 635l-189 452l-182 -452h371zM1497 -47h-332l-123 299l-100 244h-477l-209 -543h-176l647 1567h102z" />
    <glyph glyph-name="B" unicode="B" horiz-adv-x="1380" 
d="M803 633q-87 74 -311 74h-46v-598h140q88 0 141 13t84 46q74 74 74 233q0 160 -82 232zM782 1270q-27 49 -82 76q-55 30 -204 30q-7 0 -24.5 -1t-25.5 -1v-526h9q213 0 286 63q70 60 70 203q0 96 -29 156zM1116 127q-85 -106 -235 -143q-121 -31 -353 -31h-385v1567h342
q310 0 477.5 -95.5t167.5 -296.5q0 -164 -118 -264q-54 -45 -125 -71q110 -34 184 -99q137 -119 137 -299q0 -153 -92 -268z" />
    <glyph glyph-name="C" unicode="C" horiz-adv-x="1345" 
d="M850 -47q-325 0 -537 209q-209 212 -209 549q0 215 97 417q95 199 270 297q173 95 377 95q169 0 309 -70q135 -69 213 -162l6 -43l-96 -94q-66 94 -102 121q-128 102 -299 102q-201 0 -320 -162q-121 -172 -121 -491q0 -306 131 -461q130 -154 324 -154q102 0 215 52
q44 21 83 59t89 113l113 -113q-120 -137 -252.5 -200.5t-290.5 -63.5z" />
    <glyph glyph-name="D" unicode="D" horiz-adv-x="1671" 
d="M1133 1016q-47 137 -127 217q-82 85 -179 113q-99 30 -264 30q-82 0 -121 -2v-1278h181q184 0 297 49q104 45 182 185q76 146 76 368q0 184 -45 318zM1452 408q-55 -147 -143 -238q-85 -91 -211 -143q-119 -50 -224 -62q-102 -12 -286 -12h-447v1569l451 -2
q337 0 528 -105q195 -106 289 -287t94 -413q0 -170 -51 -307z" />
    <glyph glyph-name="E" unicode="E" horiz-adv-x="1173" 
d="M1087 1378h-497h-150v-270v-43v-219h103h321v-141h-315h-109v-136v-32v-56v-102v-283h146h497v-141h-948v424v102v88v541v412h952v-144z" />
    <glyph glyph-name="F" unicode="F" horiz-adv-x="987" 
d="M1075 1378h-497h-148v-274v-43v-215h100h324v-141h-317h-107v-140v-35v-53v-102v-422h-305v420v104v88v541v414h950v-142z" />
    <glyph glyph-name="G" unicode="G" horiz-adv-x="1622" 
d="M1366 133q-103 -86 -162 -108q-188 -72 -346 -72q-324 0 -539 215q-217 214 -217 543q0 321 205 563q203 246 557 246q310 0 512 -232v-45l-98 -100q-55 80 -94 119q-120 114 -297 114q-186 0 -318 -135q-135 -135 -135 -496q0 -362 131 -505q133 -142 324 -142
q102 0 176 39q71 36 98 88q25 46 25 142v307h297v-279l-45 45q62 -192 -74 -307z" />
    <glyph glyph-name="H" unicode="H" horiz-adv-x="1656" 
d="M1462 -47h-303v752h-696v-752h-303v1567h303v-674h696v674h303v-1567z" />
    <glyph glyph-name="I" unicode="I" horiz-adv-x="657" 
d="M463 -47h-303v430v725v412h303v-412v-725v-430z" />
    <glyph glyph-name="J" unicode="J" horiz-adv-x="1001" 
d="M793 297q-14 -83 -76 -172q-62 -83 -162 -127q-96 -45 -225 -45q-52 0 -103 14q-5 2 -18 7.5t-21 7.5q-20 12 -100 53l125 88q38 -16 66.5 -25t37.5 -10l9 -2q80 0 135 49q59 59 67 121q19 105 19 274v762v228h260v-228v-762q0 -109 -14 -233z" />
    <glyph glyph-name="K" unicode="K" horiz-adv-x="1632" 
d="M1255 276v3q-12 12 -12 24l348 -350h-422l-241 260l78 31q-28 -6 -53 -3t-38 4.5t-27 11t-20.5 15t-17.5 17.5l-391 389l-51 -49v-250v-426h-306v426v725v416h306v-416v-279l352 324q2 6 12 16l393 355h207l-358 -334q-9 -9 -38.5 -37.5t-49.5 -46.5l-33 -37l-209 -188
l516 -527q6 -6 21.5 -18.5t21.5 -18.5l-80 -32q84 14 92 -5z" />
    <glyph glyph-name="L" unicode="L" horiz-adv-x="1284" 
d="M1225 -47h-1116v426v725v416h303v-1424h813v-143z" />
    <glyph glyph-name="M" unicode="M" horiz-adv-x="1931" 
d="M1739 -47h-305v440v723l-512 -1163h-113l-508 1161v-645v-516h-141v522v643v402h280l510 -1153l508 1153h281v-402v-725v-440z" />
    <glyph glyph-name="N" unicode="N" horiz-adv-x="1562" 
d="M1370 -47h-108l-965 1270v-865v-368h-141v368v764v398h293l768 -1026v723v303h153v-320v-1247z" />
    <glyph glyph-name="O" unicode="O" horiz-adv-x="1835" 
d="M1229 1217q-63 82 -142 120.5t-196 38.5q-110 0 -176 -35.5t-133 -119.5q-127 -158 -127 -482q0 -327 127 -485q67 -84 136.5 -120t188.5 -36q106 0 180.5 37.5t141.5 118.5q58 72 81 188t23 295q0 177 -22.5 291.5t-81.5 188.5zM1438 172q-118 -114 -242.5 -166.5
t-302.5 -52.5q-173 0 -296 52t-243 165q-231 218 -231 578q0 351 235 561q121 109 243 160t290 51t291 -49.5t245 -157.5q240 -215 240 -574q0 -351 -229 -567z" />
    <glyph glyph-name="P" unicode="P" horiz-adv-x="1265" 
d="M748 1294q-75 72 -256 72h-66v-575h57q140 0 189 16q66 19 106 80q45 70 45 174q0 161 -75 233zM1083 844q-58 -98 -172 -154q-56 -26 -143.5 -34.5t-228.5 -8.5h-113v-278v-144l-45 43q20 -20 31.5 -98.5t12.5 -147.5l1 -69h-301v416v716v435h344q218 0 362 -41
q130 -39 224 -144q88 -107 88 -258q0 -131 -60 -233z" />
    <glyph glyph-name="Q" unicode="Q" horiz-adv-x="1812" 
d="M727 123q4 2 10 2q83 18 174 14q22 -1 44.5 -3.5t46.5 -6t36 -4.5q3 0 8 -1t7 -1q78 36 155 129q59 72 82 187t23 296q0 174 -23 289t-80 188q-65 83 -143.5 121.5t-194.5 38.5q-110 0 -175 -35t-132 -120q-127 -158 -127 -480q0 -327 127 -485q77 -95 162 -129z
M1419 170q-93 -86 -172 -129q70 -40 140.5 -104.5t173.5 -182.5l-207 -53q-132 193 -301 270q-79 -18 -179 -18q-172 0 -294 52t-242 165q-232 216 -232 573q0 351 236 562q122 110 242 160.5t288 50.5t291 -50.5t244 -158.5q238 -207 238 -570q0 -351 -226 -567z" />
    <glyph glyph-name="R" unicode="R" horiz-adv-x="1466" 
d="M782 1303q-57 63 -303 63l-45 2v-573h125q45 4 68 10q2 0 67 20q38 12 84 58q32 29 49 78q21 58 21 129q0 128 -66 213zM844 709q97 -66 200 -203q13 -17 36 -53.5t95 -179t144 -320.5h-272q-7 28 -21 70.5t-42.5 111.5t-63.5 136t-85.5 137.5t-106 123.5t-128 87
t-149.5 34l-17 2v-264v-438h-301v438v713v416h367q231 0 350 -35q152 -44 231 -133q93 -104 93 -242q0 -166 -119 -279q-81 -78 -211 -122z" />
    <glyph glyph-name="S" unicode="S" horiz-adv-x="1243" 
d="M905 41q-146 -111 -366 -86q-118 12 -244 95.5t-203 209.5l103 111q101 -147 171.5 -202.5t170.5 -70.5q123 -17 202 49q77 62 86 150t-43 152q-57 69 -231 167q-164 92 -248 158q-86 69 -131 174q-45 102 -33 213q18 171 150 273q127 97 307 79q94 -9 180 -51t191 -186
l-119 -98q-50 78 -64 92q-75 90 -190 102q-105 11 -156 -37q-53 -47 -59 -112q-9 -78 45 -138q56 -68 233 -172q188 -113 254 -161q88 -66 131 -168q45 -105 33 -232q-21 -195 -170 -311z" />
    <glyph glyph-name="T" unicode="T" horiz-adv-x="1462" 
d="M1614 1378h-420h-197v-989v-436h-303v436v989h-170h-440l4 142h1524z" />
    <glyph glyph-name="U" unicode="U" horiz-adv-x="1605" 
d="M1391 360q-15 -90 -101 -198q-78 -97 -213 -154q-134 -55 -307 -55q-201 0 -348 72q-147 70 -211 190q-71 128 -59 305l10 150v450v400h301v-400v-458q0 -146 2 -203q3 -93 10 -125q19 -88 98 -148q86 -65 246 -65q127 0 223 45q105 47 148 110q52 71 61 134
q21 134 21 241v496v373h141v-392v-485q0 -149 -22 -283z" />
    <glyph glyph-name="V" unicode="V" horiz-adv-x="1662" 
d="M1548 1520l-221 -521l-440 -1046h-125l-510 1169l-14 31q-18 41 -31 74q-10 25 -27 59l-100 234h313l139 -308l373 -860l289 697q34 84 49 127l135 344h170z" />
    <glyph glyph-name="W" unicode="W" horiz-adv-x="2455" 
d="M2339 1520l-219 -521l-441 -1046h-127l-338 778l-325 -778h-127l-510 1165l-14 29q-12 28 -31 76q-14 35 -27 61l-100 236h313l139 -308l373 -860q96 231 174.5 422.5t108.5 267.5l31 76h147l330 -764l291 690q28 66 49 127l135 349h168z" />
    <glyph glyph-name="X" unicode="X" horiz-adv-x="1818" 
d="M688 1212l-57 13q30 -7 103 -79t130 -140l58 -68l208 260q20 25 41.5 51.5t34 42t17.5 23.5l166 205h188l-287 -357q-8 -11 -30 -34.5t-33 -38.5l-211 -265l358 -438q8 -10 162 -186l211 -248h-422l-178 233q-6 7 -21 28t-34.5 46.5t-40.5 50.5l-228 281l-196 -240
q-15 -18 -40.5 -50.5t-35.5 -45.5l-236 -303h-194l297 371q14 17 43 54.5t45 57.5l223 269l-364 436l-125 149q-3 4 -13.5 15t-15.5 18l-172 197h407z" />
    <glyph glyph-name="Y" unicode="Y" horiz-adv-x="1642" 
d="M1552 1520l-575 -949v-618h-303v604l-600 963h377l452 -783l451 783h198z" />
    <glyph glyph-name="Z" unicode="Z" horiz-adv-x="1325" 
d="M1247 1405l-903 -1309h358h531v-143h-1280v102l901 1323h-369h-430l2 142h1190v-115z" />
    <glyph glyph-name="bracketleft" unicode="[" horiz-adv-x="1792" 
d="M430 1116h23h30h23v-47h-23h-30h-23v47zM1499 -428h-211h-133q-22 20 -34 43t-13 36l-2 13v1364v92h49h133h211v-137h-166l2 -1274h164v-137z" />
    <glyph glyph-name="backslash" unicode="\" horiz-adv-x="1275" 
d="M1169 -82h-315l-743 1530h313z" />
    <glyph glyph-name="bracketright" unicode="]" horiz-adv-x="757" 
d="M541 -428h-181h-210v137h163v1274h-163v137h208h136q21 -21 32.5 -44t13.5 -36l1 -12v-1364v-92z" />
    <glyph glyph-name="asciicircum" unicode="^" horiz-adv-x="2471" 
d="M588 1497h22h43h23v-45h-23h-43h-22v45zM2593 668h-338l-311 467l-308 -467h-184l530 854h64z" />
    <glyph glyph-name="underscore" unicode="_" 
 />
    <glyph glyph-name="grave" unicode="`" 
 />
    <glyph glyph-name="a" unicode="a" horiz-adv-x="1030" 
d="M602 180v203l-35 -14q-205 -81 -205 -197q0 -38 19 -61q16 -19 43 -19q31 0 78 23q44 21 100 65zM602 -66v76v13q-150 -91 -252 -91q-59 0 -110.5 39t-78 89.5t-26.5 93.5q0 59 20 101t74 83q92 72 263 141l110 45v6q0 67 -8 99q-4 18 -33 35q-30 20 -84 20
q-46 0 -80 -12t-82 -45l-96 98q77 50 139.5 70t137.5 20q127 0 202 -41q78 -45 103 -104q24 -58 24 -160v-299v-279q-51 2 -223 2z" />
    <glyph glyph-name="b" unicode="b" horiz-adv-x="1136" 
d="M678 602q-50 68 -133 68q-99 0 -191 -92v-422q4 -8 12 -17t15 -15.5t21 -17.5t20 -16q47 -35 104 -35q93 0 148 76q59 85 59 248q0 149 -55 223zM133 1278h125h51h45v-535q101 66 213 66q177 0 293 -125q105 -113 105 -324q0 -96 -24.5 -170.5t-82.5 -138.5
q-117 -129 -303 -129q-119 0 -201 62v-62h-221v1356z" />
    <glyph glyph-name="c" unicode="c" horiz-adv-x="944" 
d="M545 -78q-178 0 -297 119q-121 121 -121 315q0 197 121 318q119 119 297 119q77 0 143 -23.5t139 -83.5l-90 -90q-44 33 -78 45t-75 12q-106 0 -160 -78q-55 -85 -55 -219q0 -132 55 -217q54 -78 160 -78q41 0 74.5 12.5t78.5 45.5l90 -90q-73 -60 -139 -83.5t-143 -23.5
z" />
    <glyph glyph-name="d" unicode="d" horiz-adv-x="1165" 
d="M743 156v422q-96 92 -190 92q-82 0 -135 -68q-53 -75 -53 -223q0 -168 59 -248q55 -76 147 -76q59 0 103 35q5 4 17 13t17.5 14t13.5 12.5t13 13.5t8 13zM743 1278h45h52h125v-1356h-222v62q-85 -62 -200 -62q-185 0 -305 129q-105 118 -105 309q0 210 103 324
q119 125 294 125q107 0 213 -66v535z" />
    <glyph glyph-name="e" unicode="e" horiz-adv-x="1015" 
d="M526 676q-53 0 -87 -25.5t-52 -85.5h281q-15 45 -50 78t-92 33zM874 438h-503q0 -8 -1 -18.5t-1 -13.5q0 -183 55 -269q48 -76 141 -76q61 0 106 29.5t97 104.5l96 -99q-56 -82 -114 -116q-94 -58 -209 -58q-111 0 -201 53q-96 55 -152 150q-59 95 -59 231q0 194 113 322
q119 131 290 131q168 0 259 -104q46 -51 64.5 -111.5t18.5 -155.5z" />
    <glyph glyph-name="f" unicode="f" horiz-adv-x="821" 
d="M819 1212l-102 -100q-40 40 -63.5 53t-47.5 13q-36 0 -69 -29q-31 -31 -37 -78q-8 -55 -8 -262v-10h157v-135h-157v-308v-98v-303h-226v303v406h-139v135h139v22q0 111 10 183q11 70 60 147q53 78 123 117q92 51 180 43q55 -6 91 -25.5t89 -73.5z" />
    <glyph glyph-name="g" unicode="g" horiz-adv-x="1077" 
d="M635 635q-31 31 -94 31q-75 0 -97 -35q-36 -59 -36 -176q0 -108 41 -152q27 -31 96 -31q65 0 90 31q41 41 41 168q0 123 -41 164zM899 -500q-118 -88 -328 -88q-192 0 -313 78q-129 80 -129 213q0 6 2 53h164q0 -32 4 -56.5t21 -55.5t46 -51.5t84 -35t130 -14.5
q127 0 192 49q59 42 59 107q0 42 -2 51q-3 28 -18 45q-53 62 -236 62q-259 0 -313 37q-82 54 -82 145q0 123 119 176q-127 108 -127 262q0 145 111 240q110 96 256 96q90 0 185.5 -41.5t135.5 -105.5q58 -88 58 -193q0 -132 -95 -235t-313 -113q-151 -4 -168 -49
q-4 -14 14 -17q64 -12 232 -16q53 0 123 -4q67 -4 88 -8q99 -24 162 -105q61 -76 61 -184q0 -151 -123 -242z" />
    <glyph glyph-name="h" unicode="h" horiz-adv-x="1054" 
d="M137 1309h131h29h63v-564q101 84 228 84q108 0 178 -47q76 -45 100 -118q21 -68 21 -199v-207v-303h-223v303v225q0 83 -11 129q-6 27 -35 47q-28 21 -75 21q-57 0 -101 -33q-40 -27 -82 -98v-291v-303h-223v303v750v301z" />
    <glyph glyph-name="i" unicode="i" horiz-adv-x="602" 
d="M406 -47h-226v305v227v13v331h158h68v-438v-133v-305zM393 1024q-43 -43 -100 -43q-54 0 -100 43q-41 44 -41 102t41 99q43 43 100 43q60 0 100 -43q41 -41 41 -99t-41 -102z" />
    <glyph glyph-name="j" unicode="j" horiz-adv-x="892" 
d="M705 -211q-9 -73 -56 -141q-48 -70 -125 -109q-80 -41 -178 -41q-43 0 -143 23l51 149q50 -39 70 -39h49q37 0 71 27q30 27 39 70q9 59 9 184v577v342h157h66v-851q0 -116 -10 -191zM698 1024q-41 -41 -98 -41q-62 0 -102 43q-39 45 -39 100q0 58 41 99q40 43 100 43
t100 -43q39 -39 39 -99q0 -61 -41 -102z" />
    <glyph glyph-name="k" unicode="k" horiz-adv-x="1034" 
d="M131 1204h133h64h26v-696l398 291h125v-70q-95 -70 -173.5 -127.5t-127 -92.5t-60.5 -44l436 -512h-284l-314 364v-59v-305h-223v305v829v117z" />
    <glyph glyph-name="l" unicode="l" horiz-adv-x="569" 
d="M383 1309v-1051v-305h-223v305v743v308h135h88z" />
    <glyph glyph-name="m" unicode="m" horiz-adv-x="1626" 
d="M1425 -47h-223v305v250q0 60 -8 106q-7 22 -29 39q-27 19 -67 19q-90 0 -195 -133v-281v-305h-225v305v209q0 91 -6 135q-3 24 -31 49q-28 21 -70 21q-87 0 -190 -117v-297v-305h-223v305v225v346h223v-90q107 90 240 90q107 0 178 -51q44 -35 67 -80q135 131 279 131
q98 0 174 -49q76 -52 92 -118q14 -57 14 -179v-225v-305z" />
    <glyph glyph-name="n" unicode="n" horiz-adv-x="1103" 
d="M903 -47h-225v305v209q0 91 -6 135q-6 27 -31 49q-28 21 -70 21q-87 0 -190 -117v-297v-305h-223v305v225v346h223v-90q107 90 240 90q107 0 178 -51q89 -72 98 -155q6 -30 6 -68v-297v-305z" />
    <glyph glyph-name="o" unicode="o" horiz-adv-x="1140" 
d="M688 612q-48 64 -133 64t-133 -64q-60 -87 -60 -250q0 -166 62 -247q45 -60 131 -60q85 0 133 60q60 79 60 247q0 163 -60 250zM848 41q-119 -119 -293 -119q-171 0 -295 121q-121 121 -121 324q0 188 119 313q120 129 297 129t297 -129q119 -128 119 -313
q0 -206 -123 -326z" />
    <glyph glyph-name="p" unicode="p" horiz-adv-x="1142" 
d="M672 557q-59 68 -140 68q-93 0 -178 -99v-415q44 -47 80 -66q45 -25 92 -25q81 0 144 72q63 73 63 248q0 153 -61 217zM862 12q-115 -133 -305 -133q-106 0 -203 62v-187v-299h-221v299v672v344h221v-68q100 68 217 68q175 0 289 -123q115 -121 115 -315
q0 -192 -113 -320z" />
    <glyph glyph-name="q" unicode="q" horiz-adv-x="1173" 
d="M754 111v415q-81 99 -179 99q-80 0 -139 -68q-61 -64 -61 -217q0 -177 65 -248q63 -72 142 -72q46 0 94 25q38 20 78 66zM975 -545h-221v299v187q-97 -62 -203 -62q-191 0 -303 133q-115 127 -115 320q0 194 115 315q114 123 289 123q122 0 217 -68v68h221v-344v-672
v-299z" />
    <glyph glyph-name="r" unicode="r" horiz-adv-x="813" 
d="M680 766l-68 -137q-67 40 -100.5 39.5t-75.5 -39.5q-44 -38 -57 -90q-14 -58 -14 -148v-133v-305h-224v305v213v358h213v-84q42 37 91.5 54t110.5 10t124 -43z" />
    <glyph glyph-name="s" unicode="s" horiz-adv-x="837" 
d="M211 41l-53 76l57 -72zM547 -41q-90 -57 -201 -35q-61 12 -111.5 52t-103.5 122l113 76q34 -62 61.5 -87.5t63.5 -33.5q45 -8 69 13q29 23 35 55q8 38 -10 65q-27 39 -113 103q-99 74 -145 149q-48 74 -29 168q15 87 92 152q80 69 195 47q57 -11 101 -47t87 -111
l-110 -74q-32 55 -54 75.5t-47 25.5q-34 8 -57 -8q-24 -18 -27 -41q-6 -29 13 -54q28 -40 106 -94q151 -108 174 -194q25 -82 10 -152q-22 -114 -112 -172z" />
    <glyph glyph-name="t" unicode="t" horiz-adv-x="868" 
d="M612 -43q-65 -35 -133 -35q-83 0 -141 47q-64 51 -78 115q-12 49 -12 190v371h-109v133h109v232h219v-232h223v-133h-223v-397q0 -95 8 -127q6 -21 21 -33q18 -12 34 -12q20 0 42 18t57 72l102 -62q-28 -61 -56 -94t-63 -53z" />
    <glyph glyph-name="u" unicode="u" horiz-adv-x="1097" 
d="M885 -55h-221v67q-101 -90 -234 -90q-89 0 -154 39q-70 42 -96 105q-26 59 -26 163v252v297h223v-555q0 -74 6 -98q3 -15 29 -35q26 -16 59 -16q52 0 104 37q55 40 70 77q21 44 21 125v168v297h219v-528v-305z" />
    <glyph glyph-name="v" unicode="v" horiz-adv-x="1079" 
d="M969 778l-379 -856h-113l-387 856h242l250 -559l245 559h142z" />
    <glyph glyph-name="w" unicode="w" horiz-adv-x="1636" 
d="M1522 780l-379 -858h-113l-207 459l-202 -459h-111l-387 858h242l249 -559l191 438h133l197 -438l243 559h144z" />
    <glyph glyph-name="x" unicode="x" horiz-adv-x="1167" 
d="M1065 -47h-287l-239 301l-258 -301h-187l359 407l-355 439h287l215 -271l234 271h188l-338 -373z" />
    <glyph glyph-name="y" unicode="y" horiz-adv-x="1054" 
d="M944 743l-577 -1308h-138l215 493l-368 815h239l248 -550l240 550h141z" />
    <glyph glyph-name="z" unicode="z" horiz-adv-x="1019" 
d="M864 705l-450 -617h446v-88l-47 47q0 -26 -72.5 -45.5t-176 -28.5t-207 -14t-175.5 -5l-73 -1v90l452 621h-422v135h725v-94z" />
    <glyph glyph-name="braceleft" unicode="{" 
 />
    <glyph glyph-name="bar" unicode="|" 
 />
    <glyph glyph-name="braceright" unicode="}" 
 />
    <glyph glyph-name="asciitilde" unicode="~" 
 />
    <glyph glyph-name="DEL" horiz-adv-x="540" 
 />
    <glyph glyph-name="uni00A0" unicode="&#xa0;" 
 />
    <glyph glyph-name="exclamdown" unicode="&#xa1;" 
 />
    <glyph glyph-name="cent" unicode="&#xa2;" 
 />
    <glyph glyph-name="sterling" unicode="&#xa3;" 
 />
    <glyph glyph-name="yen" unicode="&#xa5;" 
 />
    <glyph glyph-name="brokenbar" unicode="&#xa6;" 
 />
    <glyph glyph-name="section" unicode="&#xa7;" 
 />
    <glyph glyph-name="dieresis" unicode="&#xa8;" 
 />
    <glyph glyph-name="copyright" unicode="&#xa9;" 
 />
    <glyph glyph-name="ordfeminine" unicode="&#xaa;" 
 />
    <glyph glyph-name="guillemotleft" unicode="&#xab;" 
 />
    <glyph glyph-name="logicalnot" unicode="&#xac;" 
 />
    <glyph glyph-name="registered" unicode="&#xae;" 
 />
    <glyph glyph-name="degree" unicode="&#xb0;" 
 />
    <glyph glyph-name="plusminus" unicode="&#xb1;" 
 />
    <glyph glyph-name="twosuperior" unicode="&#xb2;" 
 />
    <glyph glyph-name="threesuperior" unicode="&#xb3;" 
 />
    <glyph glyph-name="acute" unicode="&#xb4;" 
 />
    <glyph glyph-name="mu" unicode="&#xb5;" 
 />
    <glyph glyph-name="paragraph" unicode="&#xb6;" 
 />
    <glyph glyph-name="periodcentered" unicode="&#xb7;" horiz-adv-x="540" 
 />
    <glyph glyph-name="onesuperior" unicode="&#xb9;" 
 />
    <glyph glyph-name="ordmasculine" unicode="&#xba;" 
 />
    <glyph glyph-name="guillemotright" unicode="&#xbb;" 
 />
    <glyph glyph-name="onequarter" unicode="&#xbc;" 
 />
    <glyph glyph-name="onehalf" unicode="&#xbd;" 
 />
    <glyph glyph-name="threequarters" unicode="&#xbe;" 
 />
    <glyph glyph-name="questiondown" unicode="&#xbf;" 
 />
    <glyph glyph-name="Agrave" unicode="&#xc0;" horiz-adv-x="1193" 
d="M739 635l-188 452l-182 -452h370zM1348 -47h-330l-123 299l-100 244h-480l-206 -543h-179l650 1567h102zM754 1593h-195l-229 256h229z" />
    <glyph glyph-name="Aacute" unicode="&#xc1;" horiz-adv-x="1193" 
d="M739 635l-188 452l-182 -452h370zM1348 -47h-330l-123 299l-100 244h-480l-206 -543h-179l650 1567h102zM930 1849l-230 -256h-194l194 256h230z" />
    <glyph glyph-name="Acircumflex" unicode="&#xc2;" horiz-adv-x="540" 
 />
    <glyph glyph-name="Atilde" unicode="&#xc3;" horiz-adv-x="540" 
 />
    <glyph glyph-name="Adieresis" unicode="&#xc4;" 
 />
    <glyph glyph-name="Aring" unicode="&#xc5;" 
 />
    <glyph glyph-name="AE" unicode="&#xc6;" 
 />
    <glyph glyph-name="Ccedilla" unicode="&#xc7;" 
 />
    <glyph glyph-name="Egrave" unicode="&#xc8;" horiz-adv-x="1120" 
d="M907 1378h-497h-152v-270v-43v-219h102h324v-141h-317h-109v-136v-32v-56v-102v-283h148h497l-2 -141h-948v424v102v88v541v412h952zM621 1593h-195l-229 256h229z" />
    <glyph glyph-name="Eacute" unicode="&#xc9;" horiz-adv-x="1120" 
d="M907 1378h-497h-152v-270v-43v-219h102h324v-141h-317h-109v-136v-32v-56v-102v-283h148h497l-2 -141h-948v424v102v88v541v412h952zM739 1849l-229 -256h-195l195 256h229z" />
    <glyph glyph-name="Ecircumflex" unicode="&#xca;" horiz-adv-x="540" 
 />
    <glyph glyph-name="Edieresis" unicode="&#xcb;" horiz-adv-x="540" 
 />
    <glyph glyph-name="Igrave" unicode="&#xcc;" horiz-adv-x="540" 
 />
    <glyph glyph-name="Iacute" unicode="&#xcd;" horiz-adv-x="540" 
 />
    <glyph glyph-name="Icircumflex" unicode="&#xce;" horiz-adv-x="540" 
 />
    <glyph glyph-name="Idieresis" unicode="&#xcf;" horiz-adv-x="540" 
 />
    <glyph glyph-name="Eth" unicode="&#xd0;" 
 />
    <glyph glyph-name="Ntilde" unicode="&#xd1;" 
 />
    <glyph glyph-name="Ograve" unicode="&#xd2;" horiz-adv-x="1800" 
d="M1061 1217q-63 82 -142 120.5t-196 38.5q-112 0 -177 -35t-132 -120q-127 -158 -127 -482q0 -327 127 -485q65 -84 135.5 -120t189.5 -36q106 0 180.5 37.5t139.5 118.5q59 72 82.5 187.5t23.5 295.5q0 177 -22.5 291.5t-81.5 188.5zM1270 172q-117 -113 -242.5 -166
t-302.5 -53q-173 0 -296 52t-243 165q-233 220 -233 578q0 351 235 561q123 109 244.5 160t288.5 51q170 0 293 -49.5t246 -157.5q237 -212 237 -574q0 -353 -227 -567zM879 1593h-195l-229 256h229z" />
    <glyph glyph-name="Oacute" unicode="&#xd3;" horiz-adv-x="1800" 
d="M1061 1217q-63 82 -142 120.5t-196 38.5q-112 0 -177 -35t-132 -120q-127 -158 -127 -482q0 -327 127 -485q65 -84 135.5 -120t189.5 -36q106 0 180.5 37.5t139.5 118.5q59 72 82.5 187.5t23.5 295.5q0 177 -22.5 291.5t-81.5 188.5zM1270 172q-117 -113 -242.5 -166
t-302.5 -53q-173 0 -296 52t-243 165q-233 220 -233 578q0 351 235 561q123 109 244.5 160t288.5 51q170 0 293 -49.5t246 -157.5q237 -212 237 -574q0 -353 -227 -567zM1032 1849l-229 -256h-195l195 256h229z" />
    <glyph glyph-name="Ocircumflex" unicode="&#xd4;" horiz-adv-x="540" 
 />
    <glyph glyph-name="Otilde" unicode="&#xd5;" horiz-adv-x="540" 
 />
    <glyph glyph-name="Odieresis" unicode="&#xd6;" 
 />
    <glyph glyph-name="multiply" unicode="&#xd7;" 
 />
    <glyph glyph-name="Oslash" unicode="&#xd8;" 
 />
    <glyph glyph-name="Ugrave" unicode="&#xd9;" horiz-adv-x="1531" 
d="M1192 360q-13 -93 -100 -198q-75 -97 -213 -154q-134 -55 -308 -55q-198 0 -348 72q-144 70 -211 190q-71 129 -57 305l8 150v450v400h303v-400v-458v-203q3 -75 13 -125q19 -90 96 -148q89 -65 246 -65q129 0 225 45q102 47 145 110q53 68 62 134q20 127 20 241v496v373
h141v-392v-485q0 -149 -22 -283zM840 1593h-195l-229 256h229z" />
    <glyph glyph-name="Uacute" unicode="&#xda;" horiz-adv-x="1531" 
d="M1192 360q-13 -93 -100 -198q-75 -97 -213 -154q-134 -55 -308 -55q-198 0 -348 72q-144 70 -211 190q-71 129 -57 305l8 150v450v400h303v-400v-458v-203q3 -75 13 -125q19 -90 96 -148q89 -65 246 -65q129 0 225 45q102 47 145 110q53 68 62 134q20 127 20 241v496v373
h141v-392v-485q0 -149 -22 -283zM930 1849l-230 -256h-194l194 256h230z" />
    <glyph glyph-name="Ucircumflex" unicode="&#xdb;" horiz-adv-x="540" 
 />
    <glyph glyph-name="Udieresis" unicode="&#xdc;" 
 />
    <glyph glyph-name="Yacute" unicode="&#xdd;" 
 />
    <glyph glyph-name="Thorn" unicode="&#xde;" 
 />
    <glyph glyph-name="germandbls" unicode="&#xdf;" 
 />
    <glyph glyph-name="agrave" unicode="&#xe0;" horiz-adv-x="1298" 
d="M772 180v203l-35 -14q-205 -81 -205 -197q0 -42 19 -61q16 -19 43 -19q28 0 78 23q36 17 100 65zM772 -66v76v13q-150 -91 -254 -91q-85 0 -149 76t-64 146q0 59 20 101t72 83q100 74 262 141l113 45v6q0 67 -8 99q-4 18 -33 35q-30 20 -84 20q-49 0 -82 -12t-80 -45
l-98 98q78 50 141 70t138 20q128 0 200 -41q77 -44 105 -104q24 -58 24 -160v-299v-279q-53 2 -223 2zM864 905h-194l-230 256h230z" />
    <glyph glyph-name="aacute" unicode="&#xe1;" horiz-adv-x="1300" 
d="M772 180v203l-35 -14q-205 -81 -205 -197q0 -42 19 -61q16 -19 43 -19q28 0 78 23q36 17 100 65zM772 -66v76v13q-150 -91 -254 -91q-85 0 -149 76t-64 146q0 59 20 101t72 83q100 74 262 141l113 45v6q0 67 -8 99q-4 18 -33 35q-30 20 -84 20q-49 0 -82 -12t-80 -45
l-98 98q78 50 141 70t138 20q128 0 200 -41q77 -44 105 -104q24 -58 24 -160v-299v-279q-53 2 -223 2zM956 1161l-229 -256h-195l195 256h229z" />
    <glyph glyph-name="acircumflex" unicode="&#xe2;" horiz-adv-x="540" 
 />
    <glyph glyph-name="atilde" unicode="&#xe3;" horiz-adv-x="540" 
 />
    <glyph glyph-name="adieresis" unicode="&#xe4;" horiz-adv-x="540" 
 />
    <glyph glyph-name="aring" unicode="&#xe5;" horiz-adv-x="540" 
 />
    <glyph glyph-name="ae" unicode="&#xe6;" 
 />
    <glyph glyph-name="ccedilla" unicode="&#xe7;" horiz-adv-x="540" 
 />
    <glyph glyph-name="egrave" unicode="&#xe8;" horiz-adv-x="1026" 
d="M788 676q-53 0 -87 -25.5t-52 -85.5h279q-13 44 -48 77.5t-92 33.5zM1137 438h-504q0 -8 -1 -18.5t-1 -13.5q0 -183 55 -269q48 -76 141 -76q60 0 105.5 29.5t95.5 104.5l98 -99q-53 -78 -114 -116q-94 -58 -209 -58q-111 0 -201 53q-94 54 -151 150q-60 97 -60 231
q0 194 113 322q119 131 291 131q167 0 258 -104q46 -51 65 -111.5t19 -155.5zM967 905h-195l-229 256h229z" />
    <glyph glyph-name="eacute" unicode="&#xe9;" horiz-adv-x="1028" 
d="M788 676q-53 0 -87 -25.5t-52 -85.5h279q-13 44 -48 77.5t-92 33.5zM1137 438h-504q0 -8 -1 -18.5t-1 -13.5q0 -183 55 -269q48 -76 141 -76q60 0 105.5 29.5t95.5 104.5l98 -99q-53 -78 -114 -116q-94 -58 -209 -58q-111 0 -201 53q-94 54 -151 150q-60 97 -60 231
q0 194 113 322q119 131 291 131q167 0 258 -104q46 -51 65 -111.5t19 -155.5zM1079 1161l-229 -256h-195l195 256h229z" />
    <glyph glyph-name="ecircumflex" unicode="&#xea;" horiz-adv-x="540" 
 />
    <glyph glyph-name="edieresis" unicode="&#xeb;" horiz-adv-x="540" 
 />
    <glyph glyph-name="igrave" unicode="&#xec;" horiz-adv-x="913" 
d="M594 485v-227v-305h-223v305v133v438h65h158v-331h-45q20 0 31.5 -3t12.5 -7zM606 905h-196l-201 258l254 -2z" />
    <glyph glyph-name="iacute" unicode="&#xed;" horiz-adv-x="958" 
d="M545 -47h-223v305v227v13v331h157h66v-438v-133v-305zM707 1163l-201 -258h-195l144 256z" />
    <glyph glyph-name="icircumflex" unicode="&#xee;" horiz-adv-x="540" 
 />
    <glyph glyph-name="idieresis" unicode="&#xef;" horiz-adv-x="540" 
 />
    <glyph glyph-name="eth" unicode="&#xf0;" 
 />
    <glyph glyph-name="ntilde" unicode="&#xf1;" horiz-adv-x="540" 
 />
    <glyph glyph-name="ograve" unicode="&#xf2;" horiz-adv-x="1087" 
d="M868 612q-48 64 -133 64t-133 -64q-59 -86 -59 -250q0 -168 61 -247q48 -60 131 -60q88 0 133 60q60 79 60 247q0 163 -60 250zM1028 41q-119 -119 -293 -119q-172 0 -293 121q-123 120 -123 324q0 186 121 313q117 129 295 129q177 0 297 -129q119 -128 119 -313
q0 -206 -123 -326zM909 905h-194l-230 256h230z" />
    <glyph glyph-name="oacute" unicode="&#xf3;" horiz-adv-x="1087" 
d="M868 612q-48 64 -133 64t-133 -64q-59 -86 -59 -250q0 -168 61 -247q48 -60 131 -60q88 0 133 60q60 79 60 247q0 163 -60 250zM1028 41q-119 -119 -293 -119q-172 0 -293 121q-123 120 -123 324q0 186 121 313q117 129 295 129q177 0 297 -129q119 -128 119 -313
q0 -206 -123 -326zM1001 1161l-229 -256h-194l194 256h229z" />
    <glyph glyph-name="ocircumflex" unicode="&#xf4;" horiz-adv-x="540" 
 />
    <glyph glyph-name="otilde" unicode="&#xf5;" horiz-adv-x="540" 
 />
    <glyph glyph-name="odieresis" unicode="&#xf6;" horiz-adv-x="540" 
 />
    <glyph glyph-name="divide" unicode="&#xf7;" horiz-adv-x="540" 
 />
    <glyph glyph-name="oslash" unicode="&#xf8;" 
 />
    <glyph glyph-name="ugrave" unicode="&#xf9;" horiz-adv-x="1398" 
d="M1104 -55h-221v67q-104 -90 -236 -90q-88 0 -153 39q-71 43 -97 105q-24 55 -24 163v252v297h221v-555q0 -74 6 -98q7 -18 29 -35q26 -16 59 -16q53 0 105 37q51 35 71 77q19 48 19 125v168v297h221v-528v-305zM889 905h-195l-229 256h229z" />
    <glyph glyph-name="uacute" unicode="&#xfa;" horiz-adv-x="1400" 
d="M1104 -55h-221v67q-104 -90 -236 -90q-88 0 -153 39q-71 43 -97 105q-24 55 -24 163v252v297h221v-555q0 -74 6 -98q7 -18 29 -35q26 -16 59 -16q53 0 105 37q51 35 71 77q19 48 19 125v168v297h221v-528v-305zM1001 1161l-229 -256h-194l194 256h229z" />
    <glyph glyph-name="ucircumflex" unicode="&#xfb;" 
 />
    <glyph glyph-name="udieresis" unicode="&#xfc;" 
 />
    <glyph glyph-name="yacute" unicode="&#xfd;" 
 />
    <glyph glyph-name="thorn" unicode="&#xfe;" 
 />
    <glyph glyph-name="ydieresis" unicode="&#xff;" horiz-adv-x="540" 
 />
    <glyph glyph-name="Lslash" unicode="&#x141;" 
 />
    <glyph glyph-name="lslash" unicode="&#x142;" 
 />
    <glyph glyph-name="OE" unicode="&#x152;" horiz-adv-x="540" 
 />
    <glyph glyph-name="oe" unicode="&#x153;" horiz-adv-x="540" 
 />
    <glyph glyph-name="Scaron" unicode="&#x160;" 
 />
    <glyph glyph-name="scaron" unicode="&#x161;" 
 />
    <glyph glyph-name="Ydieresis" unicode="&#x178;" horiz-adv-x="540" 
 />
    <glyph glyph-name="Zcaron" unicode="&#x17d;" 
 />
    <glyph glyph-name="zcaron" unicode="&#x17e;" 
 />
    <glyph glyph-name="florin" unicode="&#x192;" 
 />
    <glyph glyph-name="pi" unicode="&#x3c0;" 
 />
    <glyph glyph-name="endash" unicode="&#x2013;" horiz-adv-x="540" 
 />
    <glyph glyph-name="emdash" unicode="&#x2014;" horiz-adv-x="540" 
 />
    <glyph glyph-name="quoteleft" unicode="&#x2018;" horiz-adv-x="466" 
d="M567 1497l-282 -706h-168l217 706h233z" />
    <glyph glyph-name="quoteright" unicode="&#x2019;" horiz-adv-x="466" 
d="M567 1497l-282 -706h-168l217 706h233z" />
    <glyph glyph-name="quotesinglbase" unicode="&#x201a;" horiz-adv-x="540" 
 />
    <glyph glyph-name="quotedblleft" unicode="&#x201c;" horiz-adv-x="1232" 
d="M567 1497l-282 -706h-168l217 706h233zM1081 1497l-282 -706h-168l217 706h233z" />
    <glyph glyph-name="quotedblright" unicode="&#x201d;" horiz-adv-x="1232" 
d="M567 1497l-282 -706h-168l217 706h233zM1081 1497l-282 -706h-168l217 706h233z" />
    <glyph glyph-name="quotedblbase" unicode="&#x201e;" horiz-adv-x="540" 
 />
    <glyph glyph-name="dagger" unicode="&#x2020;" 
 />
    <glyph glyph-name="daggerdbl" unicode="&#x2021;" horiz-adv-x="540" 
 />
    <glyph glyph-name="bullet" unicode="&#x2022;" 
 />
    <glyph glyph-name="ellipsis" unicode="&#x2026;" 
 />
    <glyph glyph-name="perthousand" unicode="&#x2030;" horiz-adv-x="540" 
 />
    <glyph glyph-name="guilsinglleft" unicode="&#x2039;" horiz-adv-x="540" 
 />
    <glyph glyph-name="guilsinglright" unicode="&#x203a;" horiz-adv-x="540" 
 />
    <glyph glyph-name="fraction" unicode="&#x2044;" horiz-adv-x="2641" 
d="M2394 1473l-614 -1543h-314l617 1543h311z" />
    <glyph glyph-name="Euro" unicode="&#x20ac;" horiz-adv-x="540" 
 />
    <glyph glyph-name="trademark" unicode="&#x2122;" 
 />
    <glyph glyph-name="Omega" unicode="&#x2126;" 
 />
    <glyph glyph-name="partialdiff" unicode="&#x2202;" 
 />
    <glyph glyph-name="Delta" unicode="&#x2206;" 
 />
    <glyph glyph-name="product" unicode="&#x220f;" 
 />
    <glyph glyph-name="summation" unicode="&#x2211;" 
 />
    <glyph glyph-name="minus" unicode="&#x2212;" horiz-adv-x="2299" 
d="M2335 311h-559v228h559v-228z" />
    <glyph glyph-name="radical" unicode="&#x221a;" 
 />
    <glyph glyph-name="infinity" unicode="&#x221e;" 
 />
    <glyph glyph-name="integral" unicode="&#x222b;" 
 />
    <glyph glyph-name="approxequal" unicode="&#x2248;" 
 />
    <glyph glyph-name="notequal" unicode="&#x2260;" 
 />
    <glyph glyph-name="lessequal" unicode="&#x2264;" 
 />
    <glyph glyph-name="greaterequal" unicode="&#x2265;" 
 />
    <glyph glyph-name="lozenge" unicode="&#x25ca;" horiz-adv-x="540" 
 />
    <glyph glyph-name="apple" unicode="&#xf8ff;" horiz-adv-x="540" 
 />
    <glyph glyph-name="fi" unicode="&#xfb01;" horiz-adv-x="540" 
 />
    <glyph glyph-name="fl" unicode="&#xfb02;" horiz-adv-x="540" 
 />
    </font>
</defs>
</svg>
