<?xml version="1.0" standalone="no"?>
<!DOCTYPE svg PUBLIC "-//W3C//DTD SVG 1.1//EN" "http://www.w3.org/Graphics/SVG/1.1/DTD/svg11.dtd" >
<svg>
<metadata>
Created by FontForge 20090622 at Thu May 10 04:56:58 2018
 By deploy user
Copyright (c) Boutros International, 2005. All rights reserved.
</metadata>
<defs>
<font id="GEDinarOne-Light" horiz-adv-x="0" >
  <font-face 
    font-family="GE Dinar One"
    font-weight="300"
    font-stretch="normal"
    units-per-em="1000"
    panose-1="2 10 5 3 2 1 2 2 2 4"
    ascent="800"
    descent="-200"
    bbox="-114 -375 1281 995"
    underline-thickness="50"
    underline-position="-50"
    unicode-range="U+0020-U+FEFF"
  />
<missing-glyph horiz-adv-x="500" 
d="M63 0h375v750h-375v-750zM125 63v625h250v-625h-250z" />
    <glyph glyph-name="alefmaddaabovearabic" unicode="&#x627;&#x653;" horiz-adv-x="146" 
d="M109 0v645l-47 -14v-631h47zM226 726l-25 25q-32 -29 -54 -29q-19 0 -54 20q-34 20 -60 20q-35 0 -79 -42l26 -24q31 29 53 29q19 0 54 -21q35 -20 60 -20q37 0 79 42z" />
    <glyph glyph-name="alefhamzaabovearabic" unicode="&#x627;&#x654;" horiz-adv-x="146" 
d="M109 0v645l-47 -14v-631h47zM159 685v29h-87v11q0 42 32 42q15 0 29 -14l18 24q-19 18 -42 18q-67 0 -67 -72v-9h-26l-21 -29h164z" />
    <glyph glyph-name="wawhamzaabovearabic" unicode="&#x648;&#x654;" horiz-adv-x="429" 
d="M392 228q3 90 -40 146q-47 62 -131 62q-172 0 -172 -219q0 -217 172 -217q70 0 117 47q3 0 3 -16q1 -77 -34 -126q-39 -57 -111 -57q-60 0 -111 24l21 -46q41 -19 90 -19q94 0 145 65q46 58 46 161zM346 217q0 -176 -125 -176t-125 176q0 177 125 177t125 -177zM317 494
v38h-159v32q0 79 64 79q30 0 52 -22l27 31q-32 29 -71 29q-53 0 -83.5 -34t-30.5 -88v-27h-49l-31 -38h281z" />
    <glyph glyph-name="alefhamzabelowarabic" unicode="&#x627;&#x655;" horiz-adv-x="146" 
d="M109 0v645l-47 -14v-631h47zM156 -193v28h-88v11q0 43 32 43q16 0 30 -15l17 24q-18 18 -42 18q-66 0 -66 -70v-11h-26l-21 -28h164z" />
    <glyph glyph-name="yehhamzaabovearabic" unicode="&#x64a;&#x654;" horiz-adv-x="596" 
d="M559 395q-51 58 -132 58q-78 0 -121.5 -44.5t-43.5 -122.5v-127h248v-163v-1q0 -138 -202 -141q-113 -1 -162.5 61t-49.5 199l-47 -15q13 -148 60 -211q59 -81 199 -81q242 0 249 184v211l-249 -1v77q0 133 124 133q84 0 112 -64zM206 200v33h-164v42q0 34 19 56.5
t51 22.5q30 0 52 -22l26 26q-32 29 -72 29q-52 0 -82 -34t-30 -89v-31h-49l-32 -33h281z" />
    <glyph glyph-name="shaddadammatanarabic" unicode="&#x64c;&#x651;" arabic-form="isolated" 
d="M233 835l-3 36q-18 11 -18 26q0 6 7.5 28t7.5 30q0 9 -4 16q-7 24 -42 24q-49 -24 -49 -86q12 -23 36 -40q-38 -35 -58 -36q0 54 -3 64q-7 31 -33 26q-19 -9 -23 -33q-2 -6 -5 -45q19 31 22 32q13 9 22 -6q7 -10 7 -23q0 -14 -23 -55q74 17 114 66q33 -21 45 -24z
M233 819l-6 -6l-7 -52q-4 -26 -26 -19q-14 4 -32 42q0 -4 -4 0q-9 -46 -26 -68q-17 -11 -28 3q-7 7 -7 46q-6 -6 -8 -6l-5 -38q-3 -25 4 -35q7 -22 42 -22q22 5 32 30q8 2 34 2q45 0 45 58zM194 909q-31 34 -31 42q0 2 2 12q3 1 8 1q12 0 21 -19q8 -17 0 -36z" />
    <glyph glyph-name="shaddakasratanarabic" unicode="&#x64d;&#x651;" arabic-form="isolated" 
d="M211 945l-10 -2q1 -11 -7 -53q-5 -23 -22 -15q-13 6 -20 19l-2 2q-1 3 -3.5 9l-4.5 11l-6 -3q0 -25 -14 -61q-8 -23 -25 -23q-5 0 -9 3q-5 2 -8.5 6t-5.5 10.5t-2.5 11t-2 13.5t-1.5 12l-6 -5q-9 -54 0 -74q7 -25 42 -25q14 5 26 23q13 23 18 28l10 -6q33 -7 49 13
q15 15 15 45q0 20 -11 61zM213 820l-116 -62q-38 -21 -43 -42l134 65q25 7 25 39zM217 771l-133 -69q-27 -3 -32 -38l74 32q38 18 58 26q33 16 33 49z" />
    <glyph glyph-name="shaddafathaarabic" unicode="&#x64e;&#x651;" arabic-form="isolated" 
d="M191 905l-87 -46q-7 -3 -48 -22q-29 -19 -28 -46l137 72q28 9 28 34q0 2 -2 8zM185 821q0 9 -10 6q1 -7 -7 -56q-4 -16 -26 -16q-16 8 -28 43l-4 -5l-9 -49q-7 -28 -33 -31q-15 8 -22 50l-8 -8q-6 -48 4 -70q6 -21 42 -21q13 4 22 21q12 25 16 28q19 -6 31 -6q19 0 28 12
q14 23 14 56q0 27 -10 46z" />
    <glyph glyph-name="shaddadammaarabicX" unicode="&#x64f;&#x651;" arabic-form="isolated" 
d="M204 823v28q-14 8 -14 16q0 5 10 25q7 16 1 30q-7 21 -32 21q-22 0 -36 -14q-23 -17 -23 -42q21 -25 36 -36q-40 -43 -108 -81q40 -4 74 21q21 14 56 54zM197 806q-16 -3 -16 -26v-5q0 -15 -3 -21q-9 -22 -26 -20q-9 5 -14 16l-5 20q-15 -4 -17 -6l-6 -48q-3 -23 -32 -18
q-20 5 -20 44l-14 -8q0 -32 8 -50q12 -26 38 -21q6 1 11 4t10.5 9t8 8.5t9.5 11.5l7 10q16 -8 22 -8q18 0 33 20q24 43 6 88zM172 907q4 -8 -4 -33q-30 17 -35 29q0 13 13 19q18 5 26 -15z" />
    <glyph glyph-name="shaddakasraarabic" unicode="&#x650;&#x651;" arabic-form="isolated" 
d="M175 790q14 22 14 53q0 34 -14 57q-1 -10 -3.5 -27t-3.5 -23q-13 -28 -26 -24q-24 27 -30 38q-11 -34 -15 -55q-7 -19 -25 -19q-18 8 -20 48l-6 -2q-10 -26 -4 -63q10 -22 22 -25q7 -3 14 -3q12 0 24 16q6 8 18 26q35 -12 55 3zM191 777l-123 -72q-22 -7 -22 -41l138 84
q9 24 7 29z" />
    <glyph glyph-name="allahisolated" unicode="&#xfedf;&#xfee0;&#xfeea;" horiz-adv-x="1096" arabic-form="isolated" 
d="M1059 167v478l-47 -14v-456q0 -133 -124 -133h-44q-123 0 -123 128v426l-47 -15v-406q0 -133 -125 -133h-29q-124 0 -124 133v278h-180q-69 0 -109 -40q-58 -58 -58 -183q0 -230 167 -230q111 0 149 86q41 -86 148 -86h42q100 0 142 74q44 -74 140 -74h56q76 0 121 46
t45 121zM349 230q0 -188 -126 -188q-127 0 -127 188q0 187 127 187h126v-187zM747 807l-10 -4q2 -15 -7 -52q-4 -22 -22 -14q-12 5 -20 18q0 1 -1.5 3.5t-3.5 7.5t-5 11l-6 -2q0 -26 -14 -62q-7 -22 -24 -22q-4 0 -10 2q-7 4 -10.5 11.5t-6.5 23.5t-3 17l-6 -3q-9 -55 0 -74
q7 -25 42 -25q15 4 26 22q14 24 18 28l10 -6q33 -7 50 14q14 16 14 44q0 23 -11 62z" />
    <glyph glyph-name="lamalefmaddaaboveisolatedarabi" unicode="&#xfedf;&#xfe82;" horiz-adv-x="496" arabic-form="isolated" 
d="M459 167v478l-47 -14v-456q0 -133 -122 -133h-63v553l-47 -16v-537h-110l-21 -42h246q75 0 119.5 46t44.5 121zM324 706l-25 25q-32 -29 -54 -29q-19 0 -54 20q-34 20 -60 20q-35 0 -79 -42l26 -24q31 29 53 29q19 0 54 -21q35 -20 60 -20q37 0 79 42z" />
    <glyph glyph-name="lamalefmaddaabovefinalarabic" unicode="&#xfee0;&#xfe82;" horiz-adv-x="608" arabic-form="final" 
d="M628 0v42h-44q-124 0 -124 128v475l-48 -14v-456q0 -133 -123 -133h-62v553l-47 -16v-537h-110l-21 -42h264q82 0 124 74q44 -74 139 -74h52zM324 706l-25 25q-32 -29 -54 -29q-19 0 -54 20q-34 20 -60 20q-35 0 -79 -42l26 -24q31 29 53 29q19 0 54 -21q35 -20 60 -20
q37 0 79 42z" />
    <glyph glyph-name="lamalefhamzaaboveisolatedarabi" unicode="&#xfedf;&#xfe84;" horiz-adv-x="496" arabic-form="isolated" 
d="M459 167v478l-47 -14v-456q0 -133 -122 -133h-63v553l-47 -16v-537h-110l-21 -42h246q75 0 119.5 46t44.5 121zM249 664v29h-87v11q0 42 32 42q15 0 29 -14l18 24q-19 18 -42 18q-67 0 -67 -72v-9h-26l-21 -29h164z" />
    <glyph glyph-name="lamalefhamzaabovefinalarabicX" unicode="&#xfee0;&#xfe84;" horiz-adv-x="608" arabic-form="final" 
d="M628 0v42h-44q-124 0 -124 128v475l-48 -14v-456q0 -133 -123 -133h-62v553l-47 -16v-537h-110l-21 -42h264q82 0 124 74q44 -74 139 -74h52zM249 664v29h-87v11q0 42 32 42q15 0 29 -14l18 24q-19 18 -42 18q-67 0 -67 -72v-9h-26l-21 -29h164z" />
    <glyph glyph-name="lamalefhamzabelowisolatedarabi" unicode="&#xfedf;&#xfe88;" horiz-adv-x="496" arabic-form="isolated" 
d="M459 167v478l-47 -14v-456q0 -133 -122 -133h-63v553l-47 -16v-537h-110l-21 -42h246q75 0 119.5 46t44.5 121zM236 -193v28h-88v11q0 43 32 43q16 0 30 -15l17 24q-18 18 -42 18q-66 0 -66 -70v-11h-26l-21 -28h164z" />
    <glyph glyph-name="lamalefhamzabelowfinalarabicX" unicode="&#xfee0;&#xfe88;" horiz-adv-x="608" arabic-form="final" 
d="M628 0v42h-44q-124 0 -124 128v475l-48 -14v-456q0 -133 -123 -133h-62v553l-47 -16v-537h-110l-21 -42h264q82 0 124 74q44 -74 139 -74h52zM236 -193v28h-88v11q0 43 32 43q16 0 30 -15l17 24q-18 18 -42 18q-66 0 -66 -70v-11h-26l-21 -28h164z" />
    <glyph glyph-name="lamalefisolatedarabic" unicode="&#xfedf;&#xfe8e;" horiz-adv-x="496" arabic-form="isolated" 
d="M459 167v478l-47 -14v-456q0 -133 -122 -133h-63v553l-47 -16v-537h-110l-21 -42h246q75 0 119.5 46t44.5 121z" />
    <glyph glyph-name="lamaleffinalarabic" unicode="&#xfee0;&#xfe8e;" horiz-adv-x="608" arabic-form="final" 
d="M628 0v42h-44q-124 0 -124 128v475l-48 -14v-456q0 -133 -123 -133h-62v553l-47 -16v-537h-110l-21 -42h264q82 0 124 74q44 -74 139 -74h52z" />
    <glyph glyph-name="hamzaarabic" unicode="&#x621;" horiz-adv-x="523" arabic-form="isolated" 
d="M486 0v42h-266v74q0 58 32.5 97t86.5 39q51 0 85 -36l34 35q-42 43 -108 43q-84 0 -130 -55q-47 -56 -47 -140v-57h-84l-40 -42h437z" />
    <glyph glyph-name="alefarabic" unicode="&#x627;" horiz-adv-x="146" arabic-form="isolated" 
d="M109 0v645l-47 -14v-631h47z" />
    <glyph glyph-name="beharabic" unicode="&#x628;" horiz-adv-x="764" arabic-form="isolated" 
d="M727 167v286l-46 -15v-263q0 -133 -123 -133h-338q-124 0 -124 133v188l-47 -59v-137q0 -77 42.5 -122t114.5 -45h357q76 0 120 45t44 122zM415 -160q0 30 -31 30q-32 0 -32 -30q0 -33 32 -33q31 0 31 33z" />
    <glyph glyph-name="tehmarbutaarabic" unicode="&#x629;" horiz-adv-x="447" arabic-form="isolated" 
d="M315 615q0 32 -32 32t-32 -32q0 -33 32 -33t32 33zM201 615q0 32 -32 32q-31 0 -31 -32q0 -33 31 -33q32 0 32 33zM410 230q0 100 -40 159q-45 69 -140 69q-94 0 -141 -69q-40 -59 -40 -159q0 -103 40 -161q47 -69 141 -69q95 0 140 69q40 58 40 161zM363 230
q0 -188 -133 -188q-134 0 -134 188q0 187 134 187q133 0 133 -187z" />
    <glyph glyph-name="teharabic" unicode="&#x62a;" horiz-adv-x="764" arabic-form="isolated" 
d="M481 454q0 32 -32 32q-31 0 -31 -32q0 -31 31 -31q32 0 32 31zM368 454q0 32 -31 32q-32 0 -32 -32q0 -31 32 -31q31 0 31 31zM727 167v286l-46 -15v-263q0 -133 -123 -133h-338q-124 0 -124 133v188l-47 -59v-137q0 -77 42.5 -122t114.5 -45h357q76 0 120 45t44 122z
" />
    <glyph glyph-name="theharabic" unicode="&#x62b;" horiz-adv-x="764" arabic-form="isolated" 
d="M424 502q0 32 -32 32q-30 0 -30 -32q0 -31 30 -31q32 0 32 31zM481 410q0 32 -32 32q-31 0 -31 -32q0 -31 31 -31q32 0 32 31zM368 410q0 32 -31 32q-32 0 -32 -32q0 -31 32 -31q31 0 31 31zM727 167v286l-46 -15v-263q0 -133 -123 -133h-338q-124 0 -124 133v188
l-47 -59v-137q0 -77 42.5 -122t114.5 -45h357q76 0 120 45t44 122z" />
    <glyph glyph-name="jeemarabic" unicode="&#x62c;" horiz-adv-x="522" arabic-form="isolated" 
d="M485 242q-10 97 -69.5 154t-155.5 57q-97 0 -186 -83l33 -33q74 71 153 71q61 0 107 -34t60 -90h-144q-105 0 -170 -68q-64 -67 -64 -174q0 -101 67 -168t167 -67q71 0 133 38v45q-52 -41 -133 -41q-82 0 -133 55q-50 55 -50 138q0 87 49 143q49 57 134 57h202zM320 70
q0 32 -31 32q-32 0 -32 -32t32 -32q31 0 31 32z" />
    <glyph glyph-name="haharabic" unicode="&#x62d;" horiz-adv-x="522" arabic-form="isolated" 
d="M485 242q-10 97 -69.5 154t-155.5 57q-97 0 -186 -83l33 -33q74 71 153 71q61 0 107 -34t60 -90h-144q-105 0 -170 -68q-64 -67 -64 -174q0 -101 67 -168t167 -67q71 0 133 38v45q-52 -41 -133 -41q-82 0 -133 55q-50 55 -50 138q0 87 49 143q49 57 134 57h202z" />
    <glyph glyph-name="khaharabic" unicode="&#x62e;" horiz-adv-x="522" arabic-form="isolated" 
d="M290 615q0 32 -31 32q-32 0 -32 -32q0 -33 32 -33q31 0 31 33zM485 242q-10 97 -69.5 154t-155.5 57q-97 0 -186 -83l33 -33q74 71 153 71q61 0 107 -34t60 -90h-144q-105 0 -170 -68q-64 -67 -64 -174q0 -101 67 -168t167 -67q71 0 133 38v45q-52 -41 -133 -41
q-82 0 -133 55q-50 55 -50 138q0 87 49 143q49 57 134 57h202z" />
    <glyph glyph-name="dalarabic" unicode="&#x62f;" horiz-adv-x="428" arabic-form="isolated" 
d="M391 0v254q0 77 -46.5 122.5t-124.5 45.5q-77 0 -126 -58v-78q37 94 126 94q123 0 123 -133v-205h-266l-28 -42h342z" />
    <glyph glyph-name="thalarabic" unicode="&#x630;" horiz-adv-x="428" arabic-form="isolated" 
d="M251 615q0 32 -31 32q-32 0 -32 -32q0 -33 32 -33q31 0 31 33zM391 0v254q0 77 -46.5 122.5t-124.5 45.5q-77 0 -126 -58v-78q37 94 126 94q123 0 123 -133v-205h-266l-28 -42h342z" />
    <glyph glyph-name="reharabic" unicode="&#x631;" horiz-adv-x="321" arabic-form="isolated" 
d="M284 33v420l-47 -15v-407q0 -77 -35 -126q-38 -57 -111 -57q-59 0 -110 24l20 -46q41 -19 90 -19q94 0 145 63q48 60 48 163z" />
    <glyph glyph-name="zainarabic" unicode="&#x632;" horiz-adv-x="328" arabic-form="isolated" 
d="M291 615q0 32 -31 32q-32 0 -32 -32q0 -33 32 -33q31 0 31 33zM284 33v420l-47 -15v-407q0 -77 -35 -126q-38 -57 -111 -57q-59 0 -110 24l20 -46q41 -19 90 -19q94 0 145 63q48 60 48 163z" />
    <glyph glyph-name="seenarabic" unicode="&#x633;" horiz-adv-x="1198" arabic-form="isolated" 
d="M1151 167v286l-47 -16v-262q0 -133 -123 -133h-126v362l-47 -15v-347h-250v315l-47 -15v-343q0 -92 -59 -124q-40 -22 -137 -22q-117 0 -168 62t-51 199v70l-47 -15q-1 -49 2 -73q11 -148 63 -213q60 -76 199 -76q127 0 186 46t59 147h429q77 0 120.5 44.5t43.5 122.5z
" />
    <glyph glyph-name="sheenarabic" unicode="&#x634;" horiz-adv-x="1198" arabic-form="isolated" 
d="M1151 167v286l-47 -16v-262q0 -133 -123 -133h-126v362l-47 -15v-347h-250v315l-47 -15v-343q0 -92 -59 -124q-40 -22 -137 -22q-117 0 -168 62t-51 199v70l-47 -15q-1 -49 2 -73q11 -148 63 -213q60 -76 199 -76q127 0 186 46t59 147h429q77 0 120.5 44.5t43.5 122.5z
M803 615q0 32 -32 32t-32 -32q0 -33 32 -33t32 33zM917 615q0 32 -32 32t-32 -32q0 -33 32 -33t32 33zM859 707q0 31 -31 31q-32 0 -32 -31q0 -32 32 -32q31 0 31 32z" />
    <glyph glyph-name="sadarabic" unicode="&#x635;" horiz-adv-x="1149" arabic-form="isolated" 
d="M1093 0q0 3 0.5 9.5t1 18t0.5 22.5q3 41 3 68q0 129 -43 203q-68 116 -199 112q-156 -4 -248 -153q-34 -54 -50 -108v185l-47 -15v-343q0 -92 -59 -124q-40 -22 -137 -22q-117 0 -168 62t-51 199v70l-47 -15q-1 -49 2 -73q11 -148 63 -213q60 -76 199 -76q127 0 186 46
t59 147h535zM1046 42h-488v38q14 79 79 171q96 135 220 135q98 0 152 -84q43 -79 43 -187q0 -35 -6 -73z" />
    <glyph glyph-name="dadarabic" unicode="&#x636;" horiz-adv-x="1149" arabic-form="isolated" 
d="M1093 0q0 3 0.5 9.5t1 18t0.5 22.5q3 41 3 68q0 129 -43 203q-68 116 -199 112q-156 -4 -248 -153q-34 -54 -50 -108v185l-47 -15v-343q0 -92 -59 -124q-40 -22 -137 -22q-117 0 -168 62t-51 199v70l-47 -15q-1 -49 2 -73q11 -148 63 -213q60 -76 199 -76q127 0 186 46
t59 147h535zM1046 42h-488v38q14 79 79 171q96 135 220 135q98 0 152 -84q43 -79 43 -187q0 -35 -6 -73zM894 615q0 32 -30 32q-33 0 -33 -32q0 -33 33 -33q30 0 30 33z" />
    <glyph glyph-name="taharabic" unicode="&#x637;" horiz-adv-x="766" arabic-form="isolated" 
d="M724 0q0 3 0.5 9.5t1 18t0.5 22.5q3 40 3 68q0 129 -43 203q-68 116 -199 112q-211 -6 -297 -261v447l-47 -16v-561h-73l-21 -42h675zM679 42l-496 -1q10 104 90 217q97 136 221 129q98 -5 148 -83q43 -82 43 -189q0 -35 -6 -73z" />
    <glyph glyph-name="zaharabic" unicode="&#x638;" horiz-adv-x="766" arabic-form="isolated" 
d="M485 615q0 32 -32 32q-31 0 -31 -32q0 -33 31 -33q32 0 32 33zM724 0q0 3 0.5 9.5t1 18t0.5 22.5q3 40 3 68q0 129 -43 203q-68 116 -199 112q-211 -6 -297 -261v447l-47 -16v-561h-73l-21 -42h675zM679 42l-496 -1q10 104 90 217q97 136 221 129q98 -5 148 -83
q43 -82 43 -189q0 -35 -6 -73z" />
    <glyph glyph-name="ainarabic" unicode="&#x639;" horiz-adv-x="502" arabic-form="isolated" 
d="M465 242l-33 41h-196v34q0 42 22.5 68.5t61.5 26.5t61 -28l34 33q-39 36 -88 36q-63 0 -99.5 -41.5t-36.5 -106.5v-38q-66 -25 -104 -85t-38 -140q0 -101 67 -168t167 -67q71 0 133 38v45q-52 -41 -133 -41q-82 0 -133 55q-50 55 -50 138q0 87 49 143q49 57 134 57h182z
" />
    <glyph glyph-name="ghainarabic" unicode="&#x63a;" horiz-adv-x="502" arabic-form="isolated" 
d="M357 615q0 30 -32 30q-31 0 -31 -30q0 -33 31 -33q32 0 32 33zM465 242l-33 41h-196v34q0 42 22.5 68.5t61.5 26.5t61 -28l34 33q-39 36 -88 36q-63 0 -99.5 -41.5t-36.5 -106.5v-38q-66 -25 -104 -85t-38 -140q0 -101 67 -168t167 -67q71 0 133 38v45q-52 -41 -133 -41
q-82 0 -133 55q-50 55 -50 138q0 87 49 143q49 57 134 57h182z" />
    <glyph glyph-name="feharabic" unicode="&#x641;" horiz-adv-x="770" arabic-form="isolated" 
d="M590 615q0 30 -31 30q-32 0 -32 -30q0 -33 32 -33q31 0 31 33zM733 147v161q0 61 -39 103q-47 47 -130 47q-85 0 -132 -40.5t-47 -107.5q0 -79 26 -111q31 -37 116 -37h159v-30q0 -53 -27 -71.5t-99 -18.5h-340q-124 0 -124 133v188l-47 -59v-137q0 -78 44 -122.5
t122 -44.5h358q86 0 123 29q37 28 37 118zM686 200h-139q-71 0 -93 21q-21 21 -21 87q0 51 35 79.5t96 28.5q55 0 88.5 -30.5t33.5 -78.5v-107z" />
    <glyph glyph-name="qafarabic" unicode="&#x642;" horiz-adv-x="598" arabic-form="isolated" 
d="M474 615q0 30 -31 30q-32 0 -32 -30q0 -33 32 -33q31 0 31 33zM362 615q0 30 -33 30q-32 0 -32 -30q0 -33 32 -33q33 0 33 33zM561 228q2 90 -40 146q-47 62 -132 62q-171 0 -171 -219q0 -217 171 -217q73 0 122 47v-47q-3 -148 -198 -147q-118 1 -169 64q-48 60 -48 197
l-47 -17q10 -151 60 -214q58 -76 203 -76q245 0 245 193zM515 217q0 -176 -126 -176q-125 0 -125 176q0 177 125 177q126 0 126 -177z" />
    <glyph glyph-name="kafarabic" unicode="&#x643;" horiz-adv-x="764" arabic-form="isolated" 
d="M518 301v32h-164v43q0 35 18.5 57t50.5 22q29 0 52 -23l27 27q-32 30 -71 30q-52 0 -83 -35t-31 -89v-32h-49l-31 -32h281zM727 167v478l-46 -14v-456q0 -133 -123 -133h-338q-124 0 -124 133v188l-47 -59v-137q0 -77 42.5 -122t114.5 -45h357q76 0 120 45t44 122z" />
    <glyph glyph-name="lamarabic" unicode="&#x644;" horiz-adv-x="594" arabic-form="isolated" 
d="M557 645l-47 -14v-632q0 -93 -60 -124q-40 -22 -137 -22q-116 0 -167 62t-51 199l-46 -17q11 -149 63 -213q62 -77 200 -77q127 0 186 46t59 147v645z" />
    <glyph glyph-name="meemarabic" unicode="&#x645;" horiz-adv-x="687" arabic-form="isolated" 
d="M650 237q0 216 -169 216h-238q-100 0 -143 -40q-51 -43 -51 -153v-453l47 17v436q0 88 42 119q36 27 125 27h101q-53 -53 -53 -169q0 -216 170 -216q169 0 169 216zM603 237q0 -173 -122 -173q-123 0 -123 173t123 173q122 0 122 -173z" />
    <glyph glyph-name="noonarabic" unicode="&#x646;" horiz-adv-x="595" arabic-form="isolated" 
d="M333 301q0 32 -31 32q-32 0 -32 -32t32 -32q31 0 31 32zM558 0v357l-47 -15v-343q0 -92 -59 -124q-40 -22 -137 -22q-117 0 -168 62t-51 199v70l-47 -15q-1 -49 2 -73q11 -148 63 -213q60 -76 199 -76q127 0 186 46t59 147z" />
    <glyph glyph-name="heharabic" unicode="&#x647;" horiz-adv-x="447" arabic-form="isolated" 
d="M410 230q0 100 -40 159q-45 69 -140 69q-94 0 -141 -69q-40 -59 -40 -159q0 -103 40 -161q47 -69 141 -69q95 0 140 69q40 58 40 161zM363 230q0 -188 -133 -188q-134 0 -134 188q0 187 134 187q133 0 133 -187z" />
    <glyph glyph-name="wawarabic" unicode="&#x648;" horiz-adv-x="429" arabic-form="isolated" 
d="M392 228q3 90 -40 146q-47 62 -131 62q-172 0 -172 -219q0 -217 172 -217q70 0 117 47q3 0 3 -16q1 -77 -34 -126q-39 -57 -111 -57q-60 0 -111 24l21 -46q41 -19 90 -19q94 0 145 65q46 58 46 161zM346 217q0 -176 -125 -176t-125 176q0 177 125 177t125 -177z" />
    <glyph glyph-name="alefmaksuraarabic" unicode="&#x649;" horiz-adv-x="596" arabic-form="isolated" 
d="M559 395q-51 58 -132 58q-77 0 -121 -45t-44 -122v-127h249v-163v-1q0 -138 -201 -141q-114 -1 -164 61t-50 199l-47 -15q13 -148 60 -211q59 -81 201 -81q242 0 248 184h-1v211l-247 -1v77q0 133 123 133q84 0 112 -64z" />
    <glyph glyph-name="yeharabic" unicode="&#x64a;" horiz-adv-x="596" arabic-form="isolated" 
d="M559 395q-51 58 -132 58q-77 0 -121 -45t-44 -122v-127h249v-163v-1q0 -138 -201 -141q-114 -1 -164 61t-50 199l-47 -15q13 -148 60 -211q59 -81 201 -81q242 0 248 184h-1v211l-247 -1v77q0 133 123 133q84 0 112 -64zM402 -317q0 32 -32 32q-31 0 -31 -32
q0 -31 31 -31q32 0 32 31zM289 -317q0 32 -32 32q-31 0 -31 -32q0 -31 31 -31q32 0 32 31z" />
    <glyph glyph-name="fathatanarabic" unicode="&#xfe70;" arabic-form="isolated" 
d="M222 759l-130 -21q-44 -6 -54 -25l147 19q28 0 37 27zM210 712l-149 -22q-28 4 -43 -25l80 6q44 4 65 7q36 4 47 34z" />
    <glyph glyph-name="dammatanarabic" unicode="&#xfe72;" arabic-form="isolated" 
d="M223 704l-3 36q-18 10 -18 27q0 6 7.5 28t7.5 29q0 9 -4 16q-7 24 -41 24q-50 -24 -50 -86q10 -21 36 -42q-35 -32 -58 -35q0 56 -3 65q-8 30 -33 26q-19 -9 -23 -33q-2 -6 -5 -46q18 29 22 33q13 5 21.5 -5t8.5 -24q0 -15 -24 -55q75 17 114 65q39 -22 45 -23zM184 778
q-31 31 -31 41q0 14 11 14q13 0 20 -19q8 -16 0 -36z" />
    <glyph glyph-name="kasratanarabic" unicode="&#xfe74;" arabic-form="isolated" 
d="M147 -220l-116 -61q-40 -21 -43 -42l133 65q26 8 26 38zM151 -268l-134 -69q-28 -5 -32 -38l74 32q9 5 28.5 13t29.5 13q34 16 34 49z" />
    <glyph glyph-name="fathaarabic" unicode="&#xfe76;" arabic-form="isolated" 
d="M217 771l-133 -68q-27 -6 -32 -39l74 32l59 29q32 15 32 46z" />
    <glyph glyph-name="dammaarabic" unicode="&#xfe78;" arabic-form="isolated" 
d="M204 716v30q-14 6 -14 15q0 5 10 26q8 17 0 29q-6 21 -31 21q-23 0 -36 -15q-23 -17 -23 -40q5 -11 16 -21q1 -3 20 -15q-38 -41 -108 -82q39 -4 74 20q14 10 56 55zM172 800q6 -8 -4 -32q-31 17 -35 29q0 12 13 19q17 6 26 -16z" />
    <glyph glyph-name="kasraarabic" unicode="&#xfe7a;" arabic-form="isolated" 
d="M172 -216l-116 -62q-42 -23 -45 -47l135 71q26 9 26 38z" />
    <glyph glyph-name="shaddaarabic" unicode="&#xfe7c;" arabic-form="isolated" 
d="M191 828l-10 -4q2 -15 -7 -52q-4 -22 -22 -14q-12 5 -20 18q0 1 -1.5 3.5t-3.5 7.5t-5 11l-6 -2q0 -26 -14 -62q-7 -22 -24 -22q-4 0 -10 2q-7 4 -10.5 11.5t-6.5 23.5t-3 17l-6 -3q-9 -55 0 -74q7 -25 42 -25q15 4 26 22q14 24 18 28l10 -6q33 -7 50 14q14 16 14 44
q0 23 -11 62z" />
    <glyph glyph-name="sukunarabic" unicode="&#xfe7e;" arabic-form="isolated" 
d="M176 753q-21 62 -71 62q-28 -13 -41 -29q-29 -29 -29 -61q0 -13 3 -23q11 -17 22.5 -25.5t19 -10.5t19.5 -2q39 0 65 24t12 65zM146 711q-8 -10 -34 -12q-28 0 -32 28q-6 32 20 52q35 -10 46 -68z" />
    <glyph glyph-name="alefwaslaisolated" unicode="&#x671;" horiz-adv-x="146" arabic-form="isolated" 
d="M109 0v645l-47 -14v-631h47zM204 741q-23 41 -62 41q-48 -31 -73 -54q-36 -9 -53 -8l-26 19v2q-4 -4 -25 -39q9 -3 20 5q8 -4 21.5 -11.5t18.5 -10.5h110h24q15 0 25 5q20 11 20 51zM181 725q2 -2 -5 -6q-19 -4 -85 3q30 29 60 23q23 -8 30 -20z" />
    <glyph glyph-name="peharabic" unicode="&#x67e;" horiz-adv-x="764" arabic-form="isolated" 
d="M727 167v286l-46 -15v-263q0 -133 -123 -133h-338q-124 0 -124 133v188l-47 -59v-137q0 -77 42.5 -122t114.5 -45h357q76 0 120 45t44 122zM491 -160q0 30 -32 30q-31 0 -31 -30q0 -33 31 -33q32 0 32 33zM378 -160q0 30 -31 30q-32 0 -32 -30q0 -33 32 -33q31 0 31 33z
M434 -253q0 31 -32 31t-32 -31q0 -32 32 -32t32 32z" />
    <glyph glyph-name="tcheharabic" unicode="&#x686;" horiz-adv-x="522" arabic-form="isolated" 
d="M391 84q0 32 -32 32t-32 -32q0 -31 32 -31t32 31zM485 242q-10 97 -69.5 154t-155.5 57q-97 0 -186 -83l33 -33q74 71 153 71q61 0 107 -34t60 -90h-144q-105 0 -170 -68q-64 -67 -64 -174q0 -101 67 -168t167 -67q71 0 133 38v45q-52 -41 -133 -41q-82 0 -133 55
q-50 55 -50 138q0 87 49 143q49 57 134 57h202zM278 84q0 32 -32 32q-33 0 -33 -32q0 -31 33 -31q32 0 32 31zM333 -9q0 32 -31 32q-32 0 -32 -32q0 -30 32 -30q31 0 31 30z" />
    <glyph glyph-name="jeharabic" unicode="&#x698;" horiz-adv-x="328" arabic-form="isolated" 
d="M284 33v420l-47 -15v-407q0 -77 -35 -126q-38 -57 -111 -57q-59 0 -110 24l20 -46q41 -19 90 -19q94 0 145 63q48 60 48 163zM234 707q0 31 -30 31q-33 0 -33 -31q0 -32 33 -32q30 0 30 32zM291 615q0 30 -31 30q-32 0 -32 -30q0 -33 32 -33q31 0 31 33zM179 615
q0 30 -32 30t-32 -30q0 -33 32 -33t32 33z" />
    <glyph glyph-name="veharabic" unicode="&#x6a4;" horiz-adv-x="770" arabic-form="isolated" 
d="M598 707q0 31 -32 31t-32 -31q0 -32 32 -32t32 32zM655 615q0 30 -32 30q-31 0 -31 -30q0 -33 31 -33q32 0 32 33zM542 615q0 30 -31 30q-32 0 -32 -30q0 -33 32 -33q31 0 31 33zM733 147v161q0 61 -39 103q-47 47 -130 47q-85 0 -132 -40.5t-47 -107.5q0 -79 26 -111
q31 -37 116 -37h159v-30q0 -53 -27 -71.5t-99 -18.5h-340q-124 0 -124 133v188l-47 -59v-137q0 -78 44 -122.5t122 -44.5h358q86 0 123 29q37 28 37 118zM686 200h-139q-71 0 -93 21q-21 21 -21 87q0 51 35 79.5t96 28.5q55 0 88.5 -30.5t33.5 -78.5v-107z" />
    <glyph glyph-name="alefwaslafinal" unicode="&#x671;" horiz-adv-x="262" arabic-form="final" 
d="M274 0v42h-96q-69 0 -69 75v530l-47 -16v-515q0 -116 107 -116h105zM204 741q-23 41 -62 41q-48 -31 -73 -54q-36 -9 -53 -8l-26 19v2q-4 -4 -25 -39q9 -3 20 5q8 -4 21.5 -11.5t18.5 -10.5h110h24q15 0 25 5q20 11 20 51zM181 725q2 -2 -5 -6q-19 -4 -85 3q30 29 60 23
q23 -8 30 -20z" />
    <glyph glyph-name="pehfinalarabic" unicode="&#x67e;" horiz-adv-x="880" arabic-form="final" 
d="M897 0v42h-47q-123 0 -123 128v283l-46 -15v-263q0 -133 -123 -133h-338q-124 0 -124 133v188l-47 -59v-137q0 -77 42.5 -122t114.5 -45h357q100 0 142 74q44 -74 139 -74h53zM491 -160q0 30 -32 30q-31 0 -31 -30q0 -33 31 -33q32 0 32 33zM378 -160q0 30 -31 30
q-32 0 -32 -30q0 -33 32 -33q31 0 31 33zM434 -253q0 31 -32 31t-32 -31q0 -32 32 -32t32 32z" />
    <glyph glyph-name="pehinitialarabic" unicode="&#x67e;" horiz-adv-x="341" arabic-form="initial" 
d="M291 167v286l-47 -16v-262q0 -133 -122 -133h-134v-42h139q75 0 119.5 46t44.5 121zM269 -160q0 30 -32 30q-31 0 -31 -30q0 -33 31 -33q32 0 32 33zM155 -160q0 30 -32 30q-30 0 -30 -30q0 -33 30 -33q32 0 32 33zM211 -253q0 31 -31 31q-32 0 -32 -31q0 -32 32 -32
q31 0 31 32z" />
    <glyph glyph-name="pehmedialarabic" unicode="&#x67e;" horiz-adv-x="420" arabic-form="medial" 
d="M432 0v42h-88q-123 0 -123 128v283l-47 -15v-263q0 -133 -123 -133h-63v-42h68q101 0 143 74q44 -74 139 -74h94zM284 -160q0 30 -31 30q-32 0 -32 -30q0 -33 32 -33q31 0 31 33zM170 -160q0 30 -31 30q-32 0 -32 -30q0 -33 32 -33q31 0 31 33zM227 -253q0 31 -32 31
q-31 0 -31 -31q0 -32 31 -32q32 0 32 32z" />
    <glyph glyph-name="vehfinalarabic" unicode="&#x6a4;" horiz-adv-x="779" arabic-form="final" 
d="M569 707q0 31 -31 31q-32 0 -32 -31q0 -32 32 -32q31 0 31 32zM627 615q0 30 -32 30t-32 -30q0 -33 32 -33t32 33zM513 615q0 30 -32 30t-32 -30q0 -33 32 -33t32 33zM786 0v42q-136 -4 -149 9q51 28 82 88q29 56 29 119q0 80 -45 133q-50 59 -140 62q-82 2 -130 -38
t-53 -110q-11 -157 148 -254q-12 -9 -84 -10l-224 1q-124 0 -124 133v188l-47 -59v-137q0 -78 44.5 -122.5t121.5 -44.5h282q49 0 87 19q54 -19 86 -19h116zM585 69q-67 29 -114 90q-45 63 -45 124t42 95q38 32 101 29q65 -2 101 -48q32 -43 32 -104q0 -60 -29 -112
q-34 -54 -88 -74z" />
    <glyph glyph-name="vehinitialarabic" unicode="&#x6a4;" horiz-adv-x="497" arabic-form="initial" 
d="M318 707q0 31 -32 31q-31 0 -31 -31q0 -32 31 -32q32 0 32 32zM375 615q0 32 -31 32q-32 0 -32 -32q0 -33 32 -33q31 0 31 33zM262 615q0 32 -31 32q-32 0 -32 -32q0 -33 32 -33q31 0 31 33zM460 147v161q0 61 -39 103q-47 47 -130 47q-85 0 -132 -40.5t-47 -107.5
q0 -79 26 -111q31 -37 116 -37h159v-30q0 -52 -27 -71t-98 -19h-300v-42h312q86 0 123 29q37 28 37 118zM413 200h-139q-70 0 -92 21t-22 87q0 51 35.5 79.5t95.5 28.5q56 0 89 -30t33 -79v-107z" />
    <glyph glyph-name="vehmedialarabic" unicode="&#x6a4;" horiz-adv-x="447" arabic-form="medial" 
d="M223 707q0 31 -30 31q-33 0 -33 -31q0 -32 33 -32q30 0 30 32zM280 615q0 30 -31 30q-32 0 -32 -30q0 -33 32 -33q31 0 31 33zM168 615q0 30 -32 30t-32 -30q0 -33 32 -33t32 33zM475 0v42q-171 -4 -184 9q51 28 82 88q28 55 28 119q0 81 -43 133q-51 59 -141 62
q-85 2 -133 -41q-44 -39 -49 -107q-12 -157 148 -254q-18 -14 -203 -9v-42h172q49 0 86 19q54 -19 87 -19h150zM239 69q-66 28 -113 90q-46 62 -46 124q0 59 39.5 93t103.5 31q66 -1 102 -48q32 -43 32 -104q0 -62 -31 -112q-31 -54 -87 -74z" />
    <glyph glyph-name="tchehfinalarabic" unicode="&#x686;" horiz-adv-x="687" arabic-form="final" 
d="M703 0v42h-22q-162 0 -196 202q-38 209 -225 209q-97 0 -186 -83l33 -33q74 71 153 71q61 0 107 -34t60 -90h-144q-105 0 -170 -68q-64 -67 -64 -174q0 -101 67 -168t167 -67q71 0 133 38v45q-52 -41 -133 -41q-82 0 -133 55q-50 55 -50 138q0 87 49 143q49 57 134 57
l156 1q18 -104 69 -169q62 -74 163 -74h32zM383 80q0 32 -33 32q-32 0 -32 -32q0 -31 32 -31q33 0 33 31zM269 80q0 32 -32 32t-32 -32q0 -31 32 -31t32 31zM325 -12q0 32 -31 32q-32 0 -32 -32q0 -31 32 -31q31 0 31 31z" />
    <glyph glyph-name="tchehinitialarabic" unicode="&#x686;" horiz-adv-x="536" arabic-form="initial" 
d="M499 0v117q0 155 -35 230q-51 106 -193 106q-97 0 -186 -83l33 -33q74 71 153 71q116 0 155 -96q22 -57 22 -195v-75h-468v-42h519zM350 -160q0 30 -32 30q-30 0 -30 -30q0 -33 30 -33q32 0 32 33zM237 -160q0 30 -32 30q-31 0 -31 -30q0 -33 31 -33q32 0 32 33z
M294 -253q0 31 -32 31t-32 -31q0 -32 32 -32t32 32z" />
    <glyph glyph-name="tchehmedialarabic" unicode="&#x686;" horiz-adv-x="639" arabic-form="medial" 
d="M656 0v42h-155v75q0 155 -35 230q-49 106 -191 106q-99 0 -187 -83l33 -33q74 71 154 71q115 0 153 -96q24 -58 24 -195v-75h-472v-42h676zM394 -160q0 30 -32 30q-31 0 -31 -30q0 -33 31 -33q32 0 32 33zM280 -160q0 30 -31 30q-32 0 -32 -30q0 -33 32 -33q31 0 31 33z
M337 -253q0 31 -32 31t-32 -31q0 -32 32 -32t32 32z" />
    <glyph glyph-name="jehfinalarabic" unicode="&#x698;" horiz-adv-x="415" arabic-form="final" 
d="M427 0v42h-143v411l-47 -15v-407q0 -77 -35 -126q-38 -57 -111 -57q-59 0 -110 24l20 -46q41 -19 90 -19q87 0 137 54q48 51 55 139h144zM234 707q0 31 -30 31q-33 0 -33 -31q0 -32 33 -32q30 0 30 32zM291 615q0 30 -31 30q-32 0 -32 -30q0 -33 32 -33q31 0 31 33z
M179 615q0 30 -32 30t-32 -30q0 -33 32 -33t32 33z" />
    <glyph glyph-name="alefmaksurainitialarabic" unicode="&#x6cc;" horiz-adv-x="241" arabic-form="initial" 
d="M204 167v286l-47 -16v-262q0 -133 -124 -133h-60v-42h66q75 0 120 46t45 121zM180 -160q0 30 -32 30q-31 0 -31 -30q0 -33 31 -33q32 0 32 33zM67 -160q0 30 -32 30q-31 0 -31 -30q0 -33 31 -33q32 0 32 33z" />
    <glyph glyph-name="alefmaksuramedialarabic" unicode="&#x6cc;" horiz-adv-x="342" arabic-form="medial" 
d="M364 0v42h-44q-124 0 -124 128v283l-47 -15v-263q0 -133 -123 -133h-46v-42h51q101 0 143 74q44 -74 139 -74h51zM265 -160q0 30 -31 30q-32 0 -32 -30q0 -33 32 -33q31 0 31 33zM152 -160q0 30 -31 30q-32 0 -32 -30q0 -33 32 -33q31 0 31 33z" />
    <glyph glyph-name="alefwithfathatanfinal" unicode="&#xfd3c;" horiz-adv-x="262" arabic-form="final" 
d="M274 0v42h-96q-69 0 -69 75v530l-47 -16v-515q0 -116 107 -116h105zM201 779l-130 -21q-44 -6 -54 -25l147 19q28 0 37 27zM189 732l-149 -22q-28 4 -43 -25l80 6q44 4 65 7q36 4 47 34z" />
    <glyph glyph-name="alefwithfathatanisolated" unicode="&#xfd3d;" horiz-adv-x="146" arabic-form="isolated" 
d="M109 0v645l-47 -14v-631h47zM201 779l-130 -21q-44 -6 -54 -25l147 19q28 0 37 27zM189 732l-149 -22q-28 4 -43 -25l80 6q44 4 65 7q36 4 47 34z" />
    <glyph glyph-name="alefmaddaabovefinalarabic" unicode="&#x622;" horiz-adv-x="262" arabic-form="final" 
d="M274 0v42h-96q-69 0 -69 75v530l-47 -16v-515q0 -116 107 -116h105zM226 726l-25 25q-32 -29 -54 -29q-19 0 -54 20q-34 20 -60 20q-35 0 -79 -42l26 -24q31 29 53 29q19 0 54 -21q35 -20 60 -20q37 0 79 42z" />
    <glyph glyph-name="alefhamzaabovefinalarabic" unicode="&#x623;" horiz-adv-x="262" arabic-form="final" 
d="M274 0v42h-96q-69 0 -69 75v530l-47 -16v-515q0 -116 107 -116h105zM159 685v29h-87v11q0 42 32 42q15 0 29 -14l18 24q-19 18 -42 18q-67 0 -67 -72v-9h-26l-21 -29h164z" />
    <glyph glyph-name="wawhamzaabovefinalarabic" unicode="&#x624;" horiz-adv-x="497" arabic-form="final" 
d="M510 0v42h-142q3 70 3 163q0 221 -160 221q-89 0 -132 -66q-39 -58 -39 -155q0 -88 43 -143q48 -61 132 -62h103q-6 -63 -39 -102q-36 -43 -99 -43q-62 0 -106 22l19 -44q43 -18 88 -18q82 0 130 53q47 48 54 132h145zM327 205q-1 -22 -1.5 -78.5t-0.5 -84.5h-110
q-65 0 -99 49q-31 44 -31 114q0 181 126 181q117 0 116 -181zM317 494v38h-159v32q0 79 64 79q30 0 52 -22l27 31q-32 29 -71 29q-53 0 -83.5 -34t-30.5 -88v-27h-49l-31 -38h281z" />
    <glyph glyph-name="alefhamzabelowfinalarabic" unicode="&#x625;" horiz-adv-x="262" arabic-form="final" 
d="M274 0v42h-96q-69 0 -69 75v530l-47 -16v-515q0 -116 107 -116h105zM166 -193v28h-88v11q0 43 32 43q16 0 30 -15l17 24q-18 18 -42 18q-66 0 -66 -70v-11h-26l-21 -28h164z" />
    <glyph glyph-name="yehhamzaabovefinalarabic" unicode="&#x626;" horiz-adv-x="557" arabic-form="final" 
d="M315 358v33h-164v42q0 34 19 56.5t51 22.5q27 0 52 -23l26 27q-32 29 -72 29q-52 0 -82 -34t-30 -89v-31h-50l-32 -33h282zM558 -9h-1v51h-46q-83 0 -112 74l-18 -39q16 -81 130 -77q-2 -143 -201 -146q-100 -1 -150 65q-44 59 -44 159q0 96 37 201l-44 -30
q-37 -99 -37 -190q0 -112 56 -177q62 -75 182 -75q242 0 248 184z" />
    <glyph glyph-name="yehhamzaaboveinitialarabic" unicode="&#x626;" horiz-adv-x="255" arabic-form="initial" 
d="M268 587v31h-161v36q0 83 69 83q30 0 52 -21l23 26q-29 26 -67 26q-51 0 -80.5 -33t-29.5 -86v-31h-52l-23 -31h269zM206 167v286l-47 -16v-262q0 -133 -123 -133h-61v-42h67q75 0 119.5 46t44.5 121z" />
    <glyph glyph-name="yehhamzaabovemedialarabic" unicode="&#x626;" horiz-adv-x="420" arabic-form="medial" 
d="M317 591v38h-159v32q0 81 65 81q29 0 52 -24l26 31q-31 31 -71 31q-53 0 -83.5 -34.5t-30.5 -89.5v-27h-48l-32 -38h281zM432 0v42h-88q-123 0 -123 128v283l-47 -15v-263q0 -133 -123 -133h-63v-42h68q101 0 143 74q44 -74 139 -74h94z" />
    <glyph glyph-name="aleffinalarabic" unicode="&#x627;" horiz-adv-x="262" arabic-form="final" 
d="M274 0v42h-96q-69 0 -69 75v530l-47 -16v-515q0 -116 107 -116h105z" />
    <glyph glyph-name="behfinalarabic" unicode="&#x628;" horiz-adv-x="880" arabic-form="final" 
d="M897 0v42h-47q-123 0 -123 128v283l-46 -15v-263q0 -133 -123 -133h-338q-124 0 -124 133v188l-47 -59v-137q0 -77 42.5 -122t114.5 -45h357q100 0 142 74q44 -74 139 -74h53zM415 -160q0 30 -31 30q-32 0 -32 -30q0 -33 32 -33q31 0 31 33z" />
    <glyph glyph-name="behinitialarabic" unicode="&#x628;" horiz-adv-x="241" arabic-form="initial" 
d="M204 167v286l-47 -16v-262q0 -133 -124 -133h-60v-42h66q75 0 120 46t45 121zM146 -160q0 30 -32 30q-31 0 -31 -30q0 -33 31 -33q32 0 32 33z" />
    <glyph glyph-name="behmedialarabic" unicode="&#x628;" horiz-adv-x="342" arabic-form="medial" 
d="M364 0v42h-44q-124 0 -124 128v283l-47 -15v-263q0 -133 -123 -133h-46v-42h51q101 0 143 74q44 -74 139 -74h51zM210 -160q0 30 -32 30q-31 0 -31 -30q0 -33 31 -33q32 0 32 33z" />
    <glyph glyph-name="tehmarbutafinalarabic" unicode="&#x629;" horiz-adv-x="540" arabic-form="final" 
d="M333 615q0 30 -32 30q-31 0 -31 -30q0 -33 31 -33q32 0 32 33zM220 615q0 30 -32 30q-31 0 -31 -30q0 -33 31 -33q32 0 32 33zM558 0l-1 42h-37q-124 0 -124 133v278h-180q-69 0 -109 -40q-58 -58 -58 -183q0 -230 167 -230q111 0 149 86q41 -86 148 -86h45zM349 230
q0 -188 -126 -188q-127 0 -127 188q0 187 127 187h126v-187z" />
    <glyph glyph-name="tehfinalarabic" unicode="&#x62a;" horiz-adv-x="880" arabic-form="final" 
d="M481 454q0 32 -32 32q-31 0 -31 -32q0 -31 31 -31q32 0 32 31zM368 454q0 32 -31 32q-32 0 -32 -32q0 -31 32 -31q31 0 31 31zM897 0v42h-47q-123 0 -123 128v283l-46 -15v-263q0 -133 -123 -133h-338q-124 0 -124 133v188l-47 -59v-137q0 -77 42.5 -122t114.5 -45h357
q100 0 142 74q44 -74 139 -74h53z" />
    <glyph glyph-name="tehinitialarabic" unicode="&#x62a;" horiz-adv-x="241" arabic-form="initial" 
d="M209 615q0 32 -31 32q-32 0 -32 -32q0 -33 32 -33q31 0 31 33zM96 615q0 32 -32 32t-32 -32q0 -33 32 -33t32 33zM204 167v286l-47 -16v-262q0 -133 -124 -133h-60v-42h66q75 0 120 46t45 121z" />
    <glyph glyph-name="tehmedialarabic" unicode="&#x62a;" horiz-adv-x="342" arabic-form="medial" 
d="M259 615q0 32 -31 32q-32 0 -32 -32q0 -33 32 -33q31 0 31 33zM146 615q0 32 -31 32q-32 0 -32 -32q0 -33 32 -33q31 0 31 33zM364 0v42h-44q-124 0 -124 128v283l-47 -15v-263q0 -133 -123 -133h-46v-42h51q101 0 143 74q44 -74 139 -74h51z" />
    <glyph glyph-name="thehfinalarabic" unicode="&#x62b;" horiz-adv-x="880" arabic-form="final" 
d="M424 502q0 32 -32 32q-30 0 -30 -32q0 -31 30 -31q32 0 32 31zM481 410q0 32 -32 32q-31 0 -31 -32q0 -31 31 -31q32 0 32 31zM368 410q0 32 -31 32q-32 0 -32 -32q0 -31 32 -31q31 0 31 31zM897 0v42h-47q-123 0 -123 128v283l-46 -15v-263q0 -133 -123 -133h-338
q-124 0 -124 133v188l-47 -59v-137q0 -77 42.5 -122t114.5 -45h357q100 0 142 74q44 -74 139 -74h53z" />
    <glyph glyph-name="thehinitialarabic" unicode="&#x62b;" horiz-adv-x="241" arabic-form="initial" 
d="M152 707q0 31 -31 31q-32 0 -32 -31q0 -32 32 -32q31 0 31 32zM210 615q0 32 -32 32t-32 -32q0 -33 32 -33t32 33zM96 615q0 32 -32 32t-32 -32q0 -33 32 -33t32 33zM204 167v286l-47 -16v-262q0 -133 -124 -133h-60v-42h66q75 0 120 46t45 121z" />
    <glyph glyph-name="thehmedialarabic" unicode="&#x62b;" horiz-adv-x="342" arabic-form="medial" 
d="M202 707q0 31 -32 31t-32 -31q0 -32 32 -32t32 32zM259 615q0 32 -32 32q-31 0 -31 -32q0 -33 31 -33q32 0 32 33zM146 615q0 32 -31 32q-32 0 -32 -32q0 -33 32 -33q31 0 31 33zM364 0v42h-44q-124 0 -124 128v283l-47 -15v-263q0 -133 -123 -133h-46v-42h51
q101 0 143 74q44 -74 139 -74h51z" />
    <glyph glyph-name="jeemfinalarabic" unicode="&#x62c;" horiz-adv-x="687" arabic-form="final" 
d="M703 0v42h-22q-162 0 -196 202q-38 209 -225 209q-97 0 -186 -83l33 -33q74 71 153 71q61 0 107 -34t60 -90h-144q-105 0 -170 -68q-64 -67 -64 -174q0 -101 67 -168t167 -67q71 0 133 38v45q-52 -41 -133 -41q-82 0 -133 55q-50 55 -50 138q0 87 49 143q49 57 134 57
l156 1q18 -104 69 -169q62 -74 163 -74h32zM320 70q0 32 -31 32q-32 0 -32 -32t32 -32q31 0 31 32z" />
    <glyph glyph-name="jeeminitialarabic" unicode="&#x62c;" horiz-adv-x="536" arabic-form="initial" 
d="M499 0v117q0 155 -35 230q-51 106 -193 106q-97 0 -186 -83l33 -33q74 71 153 71q116 0 155 -96q22 -57 22 -195v-75h-468v-42h519zM317 -163q0 32 -32 32q-31 0 -31 -32q0 -31 31 -31q32 0 32 31z" />
    <glyph glyph-name="jeemmedialarabic" unicode="&#x62c;" horiz-adv-x="639" arabic-form="medial" 
d="M656 0v42h-155v75q0 155 -35 230q-49 106 -191 106q-99 0 -187 -83l33 -33q74 71 154 71q115 0 153 -96q24 -58 24 -195v-75h-472v-42h676zM320 -163q0 32 -31 32q-32 0 -32 -32q0 -31 32 -31q31 0 31 31z" />
    <glyph glyph-name="hahfinalarabic" unicode="&#x62d;" horiz-adv-x="687" arabic-form="final" 
d="M703 0v42h-22q-162 0 -196 202q-38 209 -225 209q-97 0 -186 -83l33 -33q74 71 153 71q61 0 107 -34t60 -90h-144q-105 0 -170 -68q-64 -67 -64 -174q0 -101 67 -168t167 -67q71 0 133 38v45q-52 -41 -133 -41q-82 0 -133 55q-50 55 -50 138q0 87 49 143q49 57 134 57
l156 1q18 -104 69 -169q62 -74 163 -74h32z" />
    <glyph glyph-name="hahinitialarabic" unicode="&#x62d;" horiz-adv-x="536" arabic-form="initial" 
d="M499 0v117q0 155 -35 230q-51 106 -193 106q-97 0 -186 -83l33 -33q74 71 153 71q116 0 155 -96q22 -57 22 -195v-75h-468v-42h519z" />
    <glyph glyph-name="hahmedialarabic" unicode="&#x62d;" horiz-adv-x="639" arabic-form="medial" 
d="M656 0v42h-155v75q0 155 -35 230q-49 106 -191 106q-99 0 -187 -83l33 -33q74 71 154 71q115 0 153 -96q24 -58 24 -195v-75h-472v-42h676z" />
    <glyph glyph-name="khahfinalarabic" unicode="&#x62e;" horiz-adv-x="687" arabic-form="final" 
d="M290 615q0 32 -31 32q-32 0 -32 -32q0 -33 32 -33q31 0 31 33zM703 0v42h-22q-162 0 -196 202q-38 209 -225 209q-97 0 -186 -83l33 -33q74 71 153 71q61 0 107 -34t60 -90h-144q-105 0 -170 -68q-64 -67 -64 -174q0 -101 67 -168t167 -67q71 0 133 38v45
q-52 -41 -133 -41q-82 0 -133 55q-50 55 -50 138q0 87 49 143q49 57 134 57l156 1q18 -104 69 -169q62 -74 163 -74h32z" />
    <glyph glyph-name="khahinitialarabic" unicode="&#x62e;" horiz-adv-x="536" arabic-form="initial" 
d="M308 615q0 32 -32 32t-32 -32q0 -33 32 -33t32 33zM499 0v117q0 155 -35 230q-51 106 -193 106q-97 0 -186 -83l33 -33q74 71 153 71q116 0 155 -96q22 -57 22 -195v-75h-468v-42h519z" />
    <glyph glyph-name="khahmedialarabic" unicode="&#x62e;" horiz-adv-x="639" arabic-form="medial" 
d="M317 615q0 32 -32 32q-31 0 -31 -32q0 -33 31 -33q32 0 32 33zM656 0v42h-155v75q0 155 -35 230q-49 106 -191 106q-99 0 -187 -83l33 -33q74 71 154 71q115 0 153 -96q24 -58 24 -195v-75h-472v-42h676z" />
    <glyph glyph-name="dalfinalarabic" unicode="&#x62f;" horiz-adv-x="515" arabic-form="final" 
d="M533 0v42h-142v212q0 77 -46.5 122.5t-124.5 45.5q-77 0 -126 -58v-78q37 94 126 94q123 0 123 -133v-205h-266l-28 -42h484z" />
    <glyph glyph-name="thalfinalarabic" unicode="&#x630;" horiz-adv-x="515" arabic-form="final" 
d="M251 615q0 32 -31 32q-32 0 -32 -32q0 -33 32 -33q31 0 31 33zM533 0v42h-142v212q0 77 -46.5 122.5t-124.5 45.5q-77 0 -126 -58v-78q37 94 126 94q123 0 123 -133v-205h-266l-28 -42h484z" />
    <glyph glyph-name="rehfinalarabic" unicode="&#x631;" horiz-adv-x="415" arabic-form="final" 
d="M427 0v42h-143v411l-47 -15v-407q0 -77 -35 -126q-38 -57 -111 -57q-59 0 -110 24l20 -46q41 -19 90 -19q87 0 137 54q48 51 55 139h144z" />
    <glyph glyph-name="zainfinalarabic" unicode="&#x632;" horiz-adv-x="415" arabic-form="final" 
d="M291 615q0 32 -31 32q-32 0 -32 -32q0 -33 32 -33q31 0 31 33zM427 0v42h-143v411l-47 -15v-407q0 -77 -35 -126q-38 -57 -111 -57q-59 0 -110 24l20 -46q41 -19 90 -19q87 0 137 54q48 51 55 139h144z" />
    <glyph glyph-name="seenfinalarabic" unicode="&#x633;" horiz-adv-x="1264" arabic-form="final" 
d="M1281 0v42h-131v411l-47 -16v-395h-249v362l-47 -15v-347h-249v315l-47 -15v-343q0 -92 -59 -124q-40 -22 -137 -22q-117 0 -168 62t-51 199v70l-47 -15q-1 -49 2 -73q11 -148 63 -213q60 -76 199 -76q127 0 186 46t59 147h723z" />
    <glyph glyph-name="seeninitialarabic" unicode="&#x633;" horiz-adv-x="808" arabic-form="initial" 
d="M766 167v286l-47 -16v-262q0 -133 -123 -133h-126v362l-47 -15v-347h-243v316l-47 -16v-300h-149v-42h618q77 0 120.5 44.5t43.5 122.5z" />
    <glyph glyph-name="seenmedialarabic" unicode="&#x633;" horiz-adv-x="892" arabic-form="medial" 
d="M901 0v42h-131v411l-47 -16v-395h-249v362l-47 -15v-347h-247v316l-47 -16v-300h-149v-42h917z" />
    <glyph glyph-name="sheenfinalarabic" unicode="&#x634;" horiz-adv-x="1264" arabic-form="final" 
d="M1281 0v42h-131v411l-47 -16v-395h-249v362l-47 -15v-347h-249v315l-47 -15v-343q0 -92 -59 -124q-40 -22 -137 -22q-117 0 -168 62t-51 199v70l-47 -15q-1 -49 2 -73q11 -148 63 -213q60 -76 199 -76q127 0 186 46t59 147h723zM802 615q0 32 -32 32t-32 -32
q0 -33 32 -33t32 33zM916 615q0 32 -32 32t-32 -32q0 -33 32 -33t32 33zM858 707q0 31 -31 31q-32 0 -32 -31q0 -32 32 -32q31 0 31 32z" />
    <glyph glyph-name="sheeninitialarabic" unicode="&#x634;" horiz-adv-x="808" arabic-form="initial" 
d="M766 167v286l-47 -16v-262q0 -133 -123 -133h-126v362l-47 -15v-347h-243v316l-47 -16v-300h-149v-42h618q77 0 120.5 44.5t43.5 122.5zM418 615q0 32 -32 32t-32 -32q0 -33 32 -33t32 33zM532 615q0 32 -32 32t-32 -32q0 -33 32 -33t32 33zM474 707q0 31 -31 31
q-32 0 -32 -31q0 -32 32 -32q31 0 31 32z" />
    <glyph glyph-name="sheenmedialarabic" unicode="&#x634;" horiz-adv-x="892" arabic-form="medial" 
d="M901 0v42h-131v411l-47 -16v-395h-249v362l-47 -15v-347h-247v316l-47 -16v-300h-149v-42h917zM422 615q0 32 -32 32t-32 -32q0 -33 32 -33t32 33zM536 615q0 32 -32 32t-32 -32q0 -33 32 -33t32 33zM478 707q0 31 -31 31q-32 0 -32 -31q0 -32 32 -32q31 0 31 32z" />
    <glyph glyph-name="sadfinalarabic" unicode="&#x635;" horiz-adv-x="1196" arabic-form="final" 
d="M1207 0v41h-111q2 62 2 76q0 130 -43 204q-68 116 -199 112q-156 -4 -248 -153q-34 -54 -50 -108v185l-47 -15v-343q0 -92 -59 -124q-40 -22 -137 -22q-117 0 -168 62t-51 199v70l-47 -15q-1 -49 2 -73q11 -148 63 -213q60 -76 199 -76q127 0 186 46t59 147h649zM1046 42
h-488v38q14 79 79 171q96 135 220 135q98 0 152 -84q43 -79 43 -187q0 -35 -6 -73z" />
    <glyph glyph-name="sadinitialarabic" unicode="&#x635;" horiz-adv-x="761" arabic-form="initial" 
d="M715 0q0 3 0.5 9.5t1 18t0.5 22.5q3 40 3 68q0 129 -43 203q-68 116 -199 112q-156 -4 -248 -153q-34 -54 -50 -108v186l-47 -16v-300h-149v-42h731zM668 42h-488v38q14 79 79 171q96 135 220 135q98 0 152 -84q43 -79 43 -187q0 -35 -6 -73z" />
    <glyph glyph-name="sadmedialarabic" unicode="&#x635;" horiz-adv-x="812" arabic-form="medial" 
d="M828 0v41h-111q2 62 2 76q0 130 -43 204q-68 116 -199 112q-156 -4 -248 -153q-34 -56 -49 -105v183l-47 -16v-300h-149v-42h844zM667 42h-487v43q13 76 78 166q96 135 220 135q98 0 152 -84q43 -79 43 -187q0 -35 -6 -73z" />
    <glyph glyph-name="dadfinalarabic" unicode="&#x636;" horiz-adv-x="1196" arabic-form="final" 
d="M1207 0v41h-111q2 62 2 76q0 130 -43 204q-68 116 -199 112q-156 -4 -248 -153q-34 -54 -50 -108v185l-47 -15v-343q0 -92 -59 -124q-40 -22 -137 -22q-117 0 -168 62t-51 199v70l-47 -15q-1 -49 2 -73q11 -148 63 -213q60 -76 199 -76q127 0 186 46t59 147h649zM1046 42
h-488v38q14 79 79 171q96 135 220 135q98 0 152 -84q43 -79 43 -187q0 -35 -6 -73zM894 615q0 32 -30 32q-33 0 -33 -32q0 -33 33 -33q30 0 30 33z" />
    <glyph glyph-name="dadinitialarabic" unicode="&#x636;" horiz-adv-x="761" arabic-form="initial" 
d="M715 0q0 3 0.5 9.5t1 18t0.5 22.5q3 40 3 68q0 129 -43 203q-68 116 -199 112q-156 -4 -248 -153q-34 -54 -50 -108v186l-47 -16v-300h-149v-42h731zM668 42h-488v38q14 79 79 171q96 135 220 135q98 0 152 -84q43 -79 43 -187q0 -35 -6 -73zM516 615q0 32 -30 32
q-33 0 -33 -32q0 -33 33 -33q30 0 30 33z" />
    <glyph glyph-name="dadmedialarabic" unicode="&#x636;" horiz-adv-x="812" arabic-form="medial" 
d="M828 0v41h-111q2 62 2 76q0 130 -43 204q-68 116 -199 112q-156 -4 -248 -153q-34 -56 -49 -105v183l-47 -16v-300h-149v-42h844zM667 42h-487v43q13 76 78 166q96 135 220 135q98 0 152 -84q43 -79 43 -187q0 -35 -6 -73zM515 615q0 32 -30 32q-33 0 -33 -32
q0 -33 33 -33q30 0 30 33z" />
    <glyph glyph-name="tahfinalarabic" unicode="&#x637;" horiz-adv-x="766" arabic-form="final" 
d="M803 0v42h-76q2 64 2 76q0 129 -43 203q-68 116 -199 112q-211 -6 -297 -261v447l-47 -16v-561h-73l-21 -42h754zM679 42l-496 -1q10 104 90 217q97 136 221 129q98 -5 148 -83q43 -82 43 -189q0 -35 -6 -73z" />
    <glyph glyph-name="tahinitialarabic" unicode="&#x637;" horiz-adv-x="766" arabic-form="initial" 
d="M687 0q0 3 0.5 9.5t1 18t0.5 22.5q3 40 3 68q0 129 -43 203q-68 116 -199 112q-212 -6 -297 -261v447l-47 -16v-561h-122l-1 -42h704zM642 42l-496 -1q9 104 90 217q97 136 221 129q98 -5 148 -83q43 -82 43 -189q0 -35 -6 -73z" />
    <glyph glyph-name="tahmedialarabic" unicode="&#x637;" horiz-adv-x="766" arabic-form="medial" 
d="M775 0v41h-85q2 66 2 77q0 129 -43 203q-68 116 -199 112q-212 -6 -297 -261v447l-47 -16v-561h-122l-1 -42h792zM642 42l-496 -1q9 104 90 217q97 136 221 129q98 -5 148 -83q43 -82 43 -189q0 -35 -6 -73z" />
    <glyph glyph-name="zahfinalarabic" unicode="&#x638;" horiz-adv-x="795" arabic-form="final" 
d="M484 615q0 32 -31 32q-32 0 -32 -32q0 -33 32 -33q31 0 31 33zM803 0v42h-76q2 64 2 76q0 129 -43 203q-68 116 -199 112q-211 -6 -297 -261v447l-47 -16v-561h-73l-21 -42h754zM679 42l-496 -1q10 104 90 217q97 136 221 129q98 -5 148 -83q43 -82 43 -189q0 -35 -6 -73
z" />
    <glyph glyph-name="zahinitialarabic" unicode="&#x638;" horiz-adv-x="728" arabic-form="initial" 
d="M479 615q0 32 -32 32t-32 -32q0 -33 32 -33t32 33zM687 0q0 3 0.5 9.5t1 18t0.5 22.5q3 40 3 68q0 129 -43 203q-68 116 -199 112q-212 -6 -297 -261v447l-47 -16v-561h-122l-1 -42h704zM642 42l-496 -1q9 104 90 217q97 136 221 129q98 -5 148 -83q43 -82 43 -189
q0 -35 -6 -73z" />
    <glyph glyph-name="zahmedialarabic" unicode="&#x638;" horiz-adv-x="761" arabic-form="medial" 
d="M450 615q0 32 -32 32t-32 -32q0 -33 32 -33t32 33zM775 0v41h-85q2 66 2 77q0 129 -43 203q-68 116 -199 112q-212 -6 -297 -261v447l-47 -16v-561h-122l-1 -42h792zM642 42l-496 -1q9 104 90 217q97 136 221 129q98 -5 148 -83q43 -82 43 -189q0 -35 -6 -73z" />
    <glyph glyph-name="ainfinalarabic" unicode="&#x639;" horiz-adv-x="495" arabic-form="final" 
d="M515 0v42h-95q-70 0 -70 75v125h94l-12 41h-82v1h-46v-1h-68v34q0 42 22.5 68.5t61.5 26.5t61 -28l34 33q-39 36 -88 36q-63 0 -99.5 -41.5t-36.5 -106.5v-38q-66 -25 -104 -85t-38 -140q0 -101 67 -168t167 -67q71 0 133 38v45q-52 -41 -133 -41q-82 0 -133 55
q-50 55 -50 138q0 87 49 143q49 57 134 57h21v-126q0 -116 107 -116h104z" />
    <glyph glyph-name="aininitialarabic" unicode="&#x639;" horiz-adv-x="513" arabic-form="initial" 
d="M476 0l-34 42h-269v233q0 59 32.5 97.5t86.5 38.5q58 0 84 -35l35 34q-44 43 -107 43q-84 0 -132 -55q-47 -56 -47 -139v-217h-141v-42h492z" />
    <glyph glyph-name="ainmedialarabic" unicode="&#x639;" horiz-adv-x="534" arabic-form="medial" 
d="M543 0v42h-370v233q0 59 32.5 97.5t86.5 38.5q58 0 84 -35l35 34q-44 43 -107 43q-84 0 -132 -55q-47 -56 -47 -139v-217h-141v-42h559z" />
    <glyph glyph-name="ghainfinalarabic" unicode="&#x63a;" horiz-adv-x="495" arabic-form="final" 
d="M355 615q0 30 -30 30q-33 0 -33 -30q0 -33 33 -33q30 0 30 33zM515 0v42h-95q-70 0 -70 75v125h94l-12 41h-82v1h-46v-1h-68v34q0 42 22.5 68.5t61.5 26.5t61 -28l34 33q-39 36 -88 36q-63 0 -99.5 -41.5t-36.5 -106.5v-38q-66 -25 -104 -85t-38 -140q0 -101 67 -168
t167 -67q71 0 133 38v45q-52 -41 -133 -41q-82 0 -133 55q-50 55 -50 138q0 87 49 143q49 57 134 57h21v-126q0 -116 107 -116h104z" />
    <glyph glyph-name="ghaininitialarabic" unicode="&#x63a;" horiz-adv-x="513" arabic-form="initial" 
d="M307 615q0 32 -32 32t-32 -32q0 -33 32 -33t32 33zM476 0l-34 42h-269v233q0 59 32.5 97.5t86.5 38.5q58 0 84 -35l35 34q-44 43 -107 43q-84 0 -132 -55q-47 -56 -47 -139v-217h-141v-42h492z" />
    <glyph glyph-name="ghainmedialarabic" unicode="&#x63a;" horiz-adv-x="534" arabic-form="medial" 
d="M332 615q0 30 -32 30q-31 0 -31 -30q0 -33 31 -33q32 0 32 33zM543 0v42h-370v233q0 59 32.5 97.5t86.5 38.5q58 0 84 -35l35 34q-44 43 -107 43q-84 0 -132 -55q-47 -56 -47 -139v-217h-141v-42h559z" />
    <glyph glyph-name="fehfinalarabic" unicode="&#x641;" horiz-adv-x="779" arabic-form="final" 
d="M592 615q0 30 -32 30q-31 0 -31 -30q0 -33 31 -33q32 0 32 33zM786 0v42q-136 -4 -149 9q51 28 82 88q29 56 29 119q0 80 -45 133q-50 59 -140 62q-82 2 -130 -38t-53 -110q-11 -157 148 -254q-12 -9 -84 -10l-224 1q-124 0 -124 133v188l-47 -59v-137q0 -78 44.5 -122.5
t121.5 -44.5h282q49 0 87 19q54 -19 86 -19h116zM585 69q-67 29 -114 90q-45 63 -45 124t42 95q38 32 101 29q65 -2 101 -48q32 -43 32 -104q0 -60 -29 -112q-34 -54 -88 -74z" />
    <glyph glyph-name="fehinitialarabic" unicode="&#x641;" horiz-adv-x="497" arabic-form="initial" 
d="M316 615q0 30 -32 30t-32 -30q0 -33 32 -33t32 33zM460 147v161q0 62 -40 103q-47 47 -129 47q-85 0 -132 -40.5t-47 -107.5q0 -79 26 -111q31 -37 115 -37h160v-30q0 -53 -27.5 -71.5t-99.5 -18.5h-298v-42h311q87 0 124 29q37 28 37 118zM413 200h-139q-70 0 -93 21
q-22 21 -22 87q0 51 35.5 79.5t96.5 28.5q55 0 88.5 -30.5t33.5 -78.5v-107z" />
    <glyph glyph-name="fehmedialarabic" unicode="&#x641;" horiz-adv-x="469" arabic-form="medial" 
d="M257 615q0 30 -31 30q-32 0 -32 -30q0 -33 32 -33q31 0 31 33zM473 0v42q-147 -4 -160 9q51 28 82 88q28 55 28 119q0 81 -43 133q-51 59 -141 62q-85 2 -133 -41q-45 -40 -49 -107q-11 -157 148 -254q-17 -14 -215 -9v-42h184q49 0 86 19q54 -19 87 -19h126zM262 64
q-78 29 -125 98q-40 59 -40 123q0 61 37.5 97t97.5 33q73 -4 114 -53q34 -43 34 -109q0 -61 -32 -116q-31 -53 -86 -73z" />
    <glyph glyph-name="qaffinalarabic" unicode="&#x642;" horiz-adv-x="679" arabic-form="final" 
d="M474 615q0 30 -31 30q-32 0 -32 -30q0 -33 32 -33q31 0 31 33zM362 615q0 30 -33 30q-32 0 -32 -30q0 -33 32 -33q33 0 33 33zM702 0v42h-145v181q0 99 -36 157q-45 73 -136 73t-137 -73q-37 -58 -37 -157q0 -133 57 -182q47 -41 155 -41h88q0 -148 -198 -147
q-118 1 -169 64q-48 60 -48 197l-47 -17q10 -151 60 -214q58 -76 203 -76q245 0 245 193h145zM511 41h-93q-98 0 -132 49q-28 37 -28 133q0 188 127 188q126 0 126 -188v-182z" />
    <glyph glyph-name="qafinitialarabic" unicode="&#x642;" horiz-adv-x="497" arabic-form="initial" 
d="M379 615q0 32 -32 32t-32 -32q0 -33 32 -33t32 33zM265 615q0 32 -32 32q-31 0 -31 -32q0 -33 31 -33q32 0 32 33zM460 147v161q0 61 -39 103q-47 47 -130 47q-85 0 -132 -40.5t-47 -107.5q0 -79 26 -111q31 -37 116 -37h159v-30q0 -52 -27 -71t-98 -19h-300v-42h312
q86 0 123 29q37 28 37 118zM413 200h-139q-70 0 -92 21t-22 87q0 51 35.5 79.5t95.5 28.5q56 0 89 -30t33 -79v-107z" />
    <glyph glyph-name="qafmedialarabic" unicode="&#x642;" horiz-adv-x="469" arabic-form="medial" 
d="M322 615q0 30 -32 30q-31 0 -31 -30q0 -33 31 -33q32 0 32 33zM209 615q0 30 -33 30q-30 0 -30 -30q0 -33 30 -33q33 0 33 33zM473 0v42q-147 -4 -160 9q51 28 82 88q29 56 29 119q0 80 -44 133q-51 59 -141 62q-85 2 -133 -41q-45 -40 -49 -107q-11 -157 148 -254
q-17 -14 -215 -9v-42h184q49 0 86 19q54 -19 87 -19h126zM262 64q-78 29 -125 98q-40 59 -40 123q0 61 37.5 97t97.5 33q73 -4 114 -53q34 -43 34 -109q0 -61 -32 -116q-31 -53 -86 -73z" />
    <glyph glyph-name="kaffinalarabic" unicode="&#x643;" horiz-adv-x="880" arabic-form="final" 
d="M897 0v42h-47q-123 0 -123 128v475l-46 -14v-456q0 -133 -123 -133h-338q-124 0 -124 133v188l-47 -59v-137q0 -77 42.5 -122t114.5 -45h357q100 0 142 74q44 -74 139 -74h53zM518 301v32h-164v43q0 35 18.5 57t50.5 22q29 0 52 -23l27 27q-32 30 -71 30q-52 0 -83 -35
t-31 -89v-32h-49l-31 -32h281z" />
    <glyph glyph-name="kafinitialarabic" unicode="&#x643;" horiz-adv-x="563" arabic-form="initial" 
d="M524 0v51q2 44 2 50q0 162 -71 235q-67 66 -179 66q-49 0 -98 -15l229 258h-60l-291 -324l33 -33q73 70 187 70q88 0 139 -51q45 -45 55 -126q4 -27 4 -139h-486v-42h536z" />
    <glyph glyph-name="kafmedialarabic" unicode="&#x643;" horiz-adv-x="636" arabic-form="medial" 
d="M659 0v42h-135q3 112 -4 157q-13 84 -65 137q-67 66 -179 66q-55 0 -107 -18l238 261h-60l-291 -324l33 -33q73 70 187 70q88 0 139 -51q45 -45 55 -126q4 -27 4 -139h-486v-42h671z" />
    <glyph glyph-name="lamfinalarabic" unicode="&#x644;" horiz-adv-x="708" arabic-form="final" 
d="M727 0v42h-170v603l-47 -14v-632q0 -93 -60 -124q-40 -22 -137 -22q-116 0 -167 62t-51 199l-46 -17q11 -149 63 -213q62 -77 200 -77q127 0 186 46t59 147h170z" />
    <glyph glyph-name="laminitialarabic" unicode="&#x644;" horiz-adv-x="241" arabic-form="initial" 
d="M204 167v478l-47 -14v-456q0 -133 -124 -133h-60v-42h66q75 0 120 46t45 121z" />
    <glyph glyph-name="lammedialarabic" unicode="&#x644;" horiz-adv-x="342" arabic-form="medial" 
d="M364 0v42h-44q-124 0 -124 128v475l-47 -14v-456q0 -133 -123 -133h-46v-42h51q101 0 143 74q44 -74 139 -74h51z" />
    <glyph glyph-name="meemfinalarabic" unicode="&#x645;" horiz-adv-x="805" arabic-form="final" 
d="M823 0v42h-49q-87 0 -111 63q-13 30 -13 132q0 216 -169 216h-238q-99 0 -143 -38q-51 -47 -51 -155v-453l47 17v436q0 88 42 119q36 27 125 27h101q-53 -53 -53 -169q0 -216 170 -216q93 0 136 73q40 -94 149 -94h57zM603 237q0 -173 -122 -173q-123 0 -123 173t123 173
q122 0 122 -173z" />
    <glyph glyph-name="meeminitialarabic" unicode="&#x645;" horiz-adv-x="526" arabic-form="initial" 
d="M489 215q0 216 -169 216t-169 -216v-20q1 -9 1 -20q0 -133 -125 -133h-42v-42h48q43 0 83 17q49 23 62 63q44 -80 142 -80q169 0 169 215zM442 215q0 -173 -122 -173q-123 0 -123 173q0 174 123 174q122 0 122 -174z" />
    <glyph glyph-name="meemmedialarabic" unicode="&#x645;" horiz-adv-x="668" arabic-form="medial" 
d="M686 0v42h-49q-63 -1 -94.5 32.5t-31.5 100.5h-1q-5 85 -52 134.5t-127 49.5q-91 0 -137 -60q-41 -52 -43 -147q-12 -110 -123 -110h-40v-42h47q83 0 127 53q35 -122 169 -122q67 0 113 35.5t59 98.5q50 -65 140 -65h43zM462 144q0 -171 -131 -171q-130 0 -130 171
q0 172 130 172q131 0 131 -172z" />
    <glyph glyph-name="noonfinalarabic" unicode="&#x646;" horiz-adv-x="710" arabic-form="final" 
d="M333 301q0 32 -31 32q-32 0 -32 -32t32 -32q31 0 31 32zM728 0v42h-170v315l-47 -15v-343q0 -92 -59 -124q-40 -22 -137 -22q-116 0 -167.5 62.5t-51.5 198.5v70l-47 -15q-1 -49 2 -73q11 -148 63 -213q60 -76 199 -76q127 0 185.5 46t59.5 147h170z" />
    <glyph glyph-name="nooninitialarabic" unicode="&#x646;" horiz-adv-x="241" arabic-form="initial" 
d="M114 615q0 32 -31 32q-32 0 -32 -32q0 -33 32 -33q31 0 31 33zM204 167v286l-47 -16v-262q0 -133 -124 -133h-60v-42h66q75 0 120 46t45 121z" />
    <glyph glyph-name="noonmedialarabic" unicode="&#x646;" horiz-adv-x="342" arabic-form="medial" 
d="M201 615q0 32 -32 32t-32 -32q0 -33 32 -33t32 33zM364 0v42h-44q-124 0 -124 128v283l-47 -15v-263q0 -133 -123 -133h-46v-42h51q101 0 143 74q44 -74 139 -74h51z" />
    <glyph glyph-name="hehfinalarabic" unicode="&#x647;" horiz-adv-x="540" arabic-form="final" 
d="M558 0l-1 42h-37q-124 0 -124 133v278h-180q-69 0 -109 -40q-58 -58 -58 -183q0 -230 167 -230q111 0 149 86q41 -86 148 -86h45zM349 230q0 -188 -126 -188q-127 0 -127 188q0 187 127 187h126v-187z" />
    <glyph glyph-name="hehinitialarabic" unicode="&#x647;" horiz-adv-x="558" arabic-form="initial" 
d="M521 0v132q0 156 -36 225q-52 96 -194 96h-137l-61 -45h187q123 0 163 -82q28 -55 28 -194v-90h-116q37 40 37 130q0 172 -134 172q-136 0 -136 -172q0 -89 38 -130h-172v-42h533zM349 172q0 -130 -91 -130q-93 0 -93 130q0 129 93 129q91 0 91 -129z" />
    <glyph glyph-name="hehmedialarabic" unicode="&#x647;" horiz-adv-x="636" arabic-form="medial" 
d="M665 0v41h-128v76q0 122 -8 167q-11 59 -54 101q-68 68 -165 68q-98 0 -166 -68q-60 -60 -60 -213q0 -90 37 -130h-159v-42h703zM486 42h-169q37 43 37 130q0 172 -134 172q-28 0 -55 -11q49 75 145 75q75 0 126 -51q32 -34 43 -84q7 -39 7 -156v-75zM311 172
q0 -130 -91 -130q-39 0 -66 27t-27 103q0 129 93 129q91 0 91 -129z" />
    <glyph glyph-name="wawfinalarabic" unicode="&#x648;" horiz-adv-x="497" arabic-form="final" 
d="M510 0v42h-142q3 70 3 163q0 221 -160 221q-89 0 -132 -66q-39 -58 -39 -155q0 -88 43 -143q48 -61 132 -62h103q-6 -63 -39 -102q-36 -43 -99 -43q-62 0 -106 22l19 -44q43 -18 88 -18q82 0 130 53q47 48 54 132h145zM327 205q-1 -22 -1.5 -78.5t-0.5 -84.5h-110
q-65 0 -99 49q-31 44 -31 114q0 181 126 181q117 0 116 -181z" />
    <glyph glyph-name="alefmaksurafinalarabic" unicode="&#x649;" horiz-adv-x="557" arabic-form="final" 
d="M558 -9h-1v51h-46q-83 0 -112 74l-18 -39q16 -81 130 -77q-2 -143 -201 -146q-100 -1 -150 65q-44 59 -44 159q0 96 37 201l-44 -30q-37 -99 -37 -190q0 -112 56 -177q62 -75 182 -75q242 0 248 184z" />
    <glyph glyph-name="yehfinalarabic" unicode="&#x64a;" horiz-adv-x="557" arabic-form="final" 
d="M558 -9h-1v51h-46q-83 0 -112 74l-18 -39q16 -81 130 -77q-2 -143 -201 -146q-100 -1 -150 65q-44 59 -44 159q0 96 37 201l-44 -30q-37 -99 -37 -190q0 -112 56 -177q62 -75 182 -75q242 0 248 184zM402 -317q0 32 -32 32q-31 0 -31 -32q0 -31 31 -31q32 0 32 31z
M289 -317q0 32 -32 32q-31 0 -31 -32q0 -31 31 -31q32 0 32 31z" />
    <glyph glyph-name="yehinitialarabic" unicode="&#x64a;" horiz-adv-x="241" arabic-form="initial" 
d="M204 167v286l-47 -16v-262q0 -133 -124 -133h-60v-42h66q75 0 120 46t45 121zM180 -160q0 30 -32 30q-31 0 -31 -30q0 -33 31 -33q32 0 32 33zM67 -160q0 30 -32 30q-31 0 -31 -30q0 -33 31 -33q32 0 32 33z" />
    <glyph glyph-name="yehmedialarabic" unicode="&#x64a;" horiz-adv-x="342" arabic-form="medial" 
d="M364 0v42h-44q-124 0 -124 128v283l-47 -15v-263q0 -133 -123 -133h-46v-42h51q101 0 143 74q44 -74 139 -74h51zM265 -160q0 30 -31 30q-32 0 -32 -30q0 -33 32 -33q31 0 31 33zM152 -160q0 30 -31 30q-32 0 -32 -30q0 -33 32 -33q31 0 31 33z" />
    <glyph glyph-name=".notdef" horiz-adv-x="500" 
d="M63 0h375v750h-375v-750zM125 63v625h250v-625h-250z" />
    <glyph glyph-name=".null" 
 />
    <glyph glyph-name="nonmarkingreturn" horiz-adv-x="333" 
 />
    <glyph glyph-name="space" unicode=" " horiz-adv-x="162" 
 />
    <glyph glyph-name="exclam" unicode="!" horiz-adv-x="159" 
d="M105 645h-51l4 -471h44zM110 0v60h-61v-60h61z" />
    <glyph glyph-name="quotedbl" unicode="&#x22;" horiz-adv-x="213" 
d="M97 613q0 32 -24 32t-24 -32q0 -7 14 -96q1 -9 10 -9q7 0 8 9q16 74 16 96zM172 613q0 32 -24 32t-24 -32q0 -7 14 -96q2 -9 10 -9q6 0 8 9q16 74 16 96z" />
    <glyph glyph-name="dollar" unicode="$" horiz-adv-x="532" 
d="M482 173q0 138 -171 168l-27 5v262q74 -5 133 -59l32 32q-73 65 -165 69v81h-41v-81q-84 -5 -132 -52.5t-48 -123.5q0 -72 48 -116q44 -41 119 -50l13 -2v-267q-87 4 -159 76l-35 -35q82 -81 194 -85v-99h41v99q92 5 145 52.5t53 125.5zM243 352q-132 18 -132 124
q0 57 35 92t97 40v-256zM433 172q0 -60 -39.5 -94.5t-109.5 -38.5v261q75 -10 106 -32q43 -28 43 -96z" />
    <glyph glyph-name="quotesingle" unicode="'" horiz-adv-x="147" 
d="M97 613q0 32 -24 32t-24 -32q0 -7 14 -96q1 -9 10 -9q7 0 8 9q16 74 16 96z" />
    <glyph glyph-name="parenleft" unicode="(" horiz-adv-x="257" 
d="M195 -53q-41 39 -48 58q-15 29 -15 72v492q0 43 15 71q29 40 48 60l-32 31q-44 -44 -59 -72q-18 -33 -18 -85v-502q0 -51 18 -84q12 -22 24 -37l35 -36z" />
    <glyph glyph-name="parenright" unicode=")" horiz-adv-x="259" 
d="M173 72v502q0 52 -18 85q-37 49 -60 72l-33 -34q37 -37 49 -59q12 -26 12 -69v-492q0 -45 -12 -70q-29 -38 -49 -59l33 -33q47 47 60 73q18 32 18 84z" />
    <glyph glyph-name="at" unicode="*" horiz-adv-x="391" 
d="M342 96l-111 62l111 62l-20 34l-109 -66l3 128h-41l3 -128l-109 66l-20 -34l111 -62l-111 -62l20 -34l109 66l-3 -128h41l-3 128l109 -66z" />
    <glyph glyph-name="plus" unicode="+" horiz-adv-x="469" 
d="M420 217v43h-163v163h-44v-163h-164v-43h164v-164h44v164h163z" />
    <glyph glyph-name="hyphen" unicode="-" horiz-adv-x="469" 
d="M420 217v43h-371v-43h371z" />
    <glyph glyph-name="period" unicode="." horiz-adv-x="178" 
d="M147 43q0 17 -12.5 29.5t-29.5 12.5q-19 0 -31 -12.5t-12 -29.5q0 -18 12 -30.5t31 -12.5q17 0 29.5 12.5t12.5 30.5z" />
    <glyph glyph-name="slash" unicode="/" horiz-adv-x="160" 
d="M251 645h-41l-301 -645h40z" />
    <glyph glyph-name="zero" unicode="0" horiz-adv-x="201" 
d="M135 91v90l-69 21v-90z" />
    <glyph glyph-name="one" unicode="1" horiz-adv-x="179" 
d="M113 0v645h-47v-630z" />
    <glyph glyph-name="two" unicode="2" horiz-adv-x="473" 
d="M407 606v39l-249 2q-92 -3 -92 -90v-542l47 -15v545q0 57 51 61h243z" />
    <glyph glyph-name="three" unicode="3" horiz-adv-x="546" 
d="M480 495v152h-49v-146q0 -100 -56 -100t-79 89v157h-48v-146q0 -100 -57 -100q-56 0 -78 88v158h-47v-632l47 -15v406q31 -49 78 -49q69 0 94 70q28 -70 90 -70q48 0 76.5 37.5t28.5 100.5z" />
    <glyph glyph-name="four" unicode="4" horiz-adv-x="486" 
d="M420 0l-19 42h-156q-58 0 -96 37t-38 97q0 141 136 141h78v40h-78q-123 0 -123 125q0 61 34 94q34 30 87 30h122v39q-50 2 -122 2q-75 0 -121 -45t-46 -120q0 -103 89 -141q-101 -35 -101 -165q0 -80 50 -128t129 -48h175z" />
    <glyph glyph-name="five" unicode="5" horiz-adv-x="493" 
d="M427 216q0 148 -181 283q-180 -125 -180 -283q0 -94 47 -153q49 -63 133 -63q86 0 136 63q45 59 45 153zM380 216q0 -78 -31 -122q-34 -52 -103 -52t-103 52q-30 45 -30 122q0 129 133 232q134 -102 134 -232z" />
    <glyph glyph-name="six" unicode="6" horiz-adv-x="473" 
d="M407 15v542q0 87 -92 90l-249 -2v-39h243q51 -4 51 -61v-545z" />
    <glyph glyph-name="seven" unicode="7" horiz-adv-x="602" 
d="M536 645h-52l-184 -599l-182 599h-52l210 -645h50z" />
    <glyph glyph-name="eight" unicode="8" horiz-adv-x="602" 
d="M536 0l-210 645h-50l-210 -645h52l182 600l184 -600h52z" />
    <glyph glyph-name="nine" unicode="9" horiz-adv-x="474" 
d="M408 15v424q0 89 -41 145q-46 61 -130 61q-171 0 -171 -217q0 -218 171 -218q77 0 124 53v-263zM361 428q0 -176 -124 -176q-125 0 -125 176q0 177 125 177q124 0 124 -177z" />
    <glyph glyph-name="colon" unicode=":" horiz-adv-x="178" 
d="M147 321q0 17 -12.5 29.5t-29.5 12.5q-19 0 -31 -12.5t-12 -29.5q0 -19 12 -31t31 -12q17 0 29.5 12t12.5 31zM147 43q0 17 -12.5 29.5t-29.5 12.5q-19 0 -31 -12.5t-12 -29.5q0 -18 12 -30.5t31 -12.5q17 0 29.5 12.5t12.5 30.5z" />
    <glyph glyph-name="less" unicode="&#x3c;" horiz-adv-x="410" 
d="M357 -10l-234 233l234 234h-69l-234 -234l234 -233h69z" />
    <glyph glyph-name="equal" unicode="=" horiz-adv-x="469" 
d="M420 286v43h-371v-43h371zM420 148v42h-371v-42h371z" />
    <glyph glyph-name="greater" unicode="&#x3e;" horiz-adv-x="402" 
d="M358 223l-234 234h-69l234 -234l-234 -233h69z" />
    <glyph glyph-name="bracketleft" unicode="[" horiz-adv-x="263" 
d="M222 -67v41h-87v699h87v40h-134v-780h134z" />
    <glyph glyph-name="backslash" unicode="\" horiz-adv-x="392" 
d="M306 -67l-258 780h-48l258 -780h48z" />
    <glyph glyph-name="bracketright" unicode="]" horiz-adv-x="263" 
d="M175 -67v780h-134v-38h91v-705h-91v-37h134z" />
    <glyph glyph-name="underscore" unicode="_" horiz-adv-x="234" 
d="M247 -99v42h-259v-42h259z" />
    <glyph glyph-name="braceleft" unicode="{" horiz-adv-x="286" 
d="M242 -67v41q-52 0 -66 11q-13 10 -13 59v188q0 62 -56 91q56 27 56 90v188q0 50 13 60q14 12 66 12v40q-73 0 -96 -19q-29 -24 -29 -92v-187q0 -72 -71 -72v-41q71 0 71 -71v-188q0 -67 29 -90q25 -20 96 -20z" />
    <glyph glyph-name="bar" unicode="|" horiz-adv-x="130" 
d="M44 -65h53v780h-53v-780z" />
    <glyph glyph-name="braceright" unicode="}" horiz-adv-x="286" 
d="M242 302v41q-73 0 -73 72v187q0 68 -27 92q-25 19 -96 19v-40q50 0 63 -12q14 -11 14 -60v-188q0 -63 56 -90q-56 -29 -56 -91v-188q0 -48 -14 -59t-63 -11v-41q72 0 97 21q26 21 26 89v188q0 71 73 71z" />
    <glyph glyph-name="nbspace" unicode="&#xa0;" horiz-adv-x="623" 
 />
    <glyph glyph-name="guillemotleft" unicode="&#xab;" horiz-adv-x="394" 
d="M253 370h-42q-62 -88 -62 -185q0 -93 62 -185h42q-47 102 -47 184q0 81 47 186zM149 370h-42q-61 -86 -61 -185q0 -94 61 -185h42q-47 102 -47 184q0 81 47 186z" />
    <glyph glyph-name="guillemotright" unicode="&#xbb;" horiz-adv-x="394" 
d="M254 185q0 99 -61 185h-42q46 -102 46 -186q0 -85 -46 -184h43q60 92 60 185zM151 185q0 97 -62 185h-42q47 -105 47 -186q0 -82 -47 -184h43q61 91 61 185z" />
    <glyph glyph-name="multiply" unicode="&#xd7;" horiz-adv-x="436" 
d="M386 99l-140 140l140 141l-27 28l-141 -140l-140 140l-29 -28l141 -141l-141 -140l29 -29l140 141l141 -141z" />
    <glyph glyph-name="divide" unicode="&#xf7;" horiz-adv-x="469" 
d="M267 360v63h-65v-63h65zM420 217v43h-371v-43h371zM267 54v64h-65v-64h65z" />
    <glyph glyph-name="commaarabic" unicode="&#x60c;" horiz-adv-x="130" 
d="M99 1v185l-37 -61v-124h37z" />
    <glyph glyph-name="semicolonarabic" unicode="&#x61b;" horiz-adv-x="178" 
d="M123 271v126l-38 63v-189h38zM147 42q0 17 -12.5 30t-29.5 13q-18 0 -30.5 -12.5t-12.5 -30.5t12 -30t31 -12q17 0 29.5 12.5t12.5 29.5z" />
    <glyph glyph-name="questionarabic" unicode="&#x61f;" horiz-adv-x="397" 
d="M374 491q0 68 -46 114q-45 47 -116 47t-117 -46t-46 -115q0 -47 46 -120l72 -101q16 -22 16 -54v-43h47v40q0 45 -28 83l-63 88q-44 68 -44 107q0 51 33.5 85.5t83.5 34.5t83 -35t33 -85h46zM236 0v60h-61v-60h61z" />
    <glyph glyph-name="tatweelarabic" unicode="&#x640;" horiz-adv-x="162" 
d="M174 0v42h-186v-42h186z" />
    <glyph glyph-name="maddaabove" unicode="&#x653;" 
d="M324 706l-25 25q-32 -29 -54 -29q-19 0 -54 20q-34 20 -60 20q-35 0 -79 -42l26 -24q31 29 53 29q19 0 54 -21q35 -20 60 -20q37 0 79 42z" />
    <glyph glyph-name="hamzaabove" unicode="&#x654;" 
d="M249 664v29h-87v11q0 42 32 42q15 0 29 -14l18 24q-19 18 -42 18q-67 0 -67 -72v-9h-26l-21 -29h164z" />
    <glyph glyph-name="hamzabelow" unicode="&#x655;" 
d="M236 -193v28h-88v11q0 43 32 43q16 0 30 -15l17 24q-18 18 -42 18q-66 0 -66 -70v-11h-26l-21 -28h164z" />
    <glyph glyph-name="zeroarabic" unicode="&#x660;" horiz-adv-x="201" 
d="M135 91v90l-69 21v-90z" />
    <glyph glyph-name="onearabic" unicode="&#x661;" horiz-adv-x="179" 
d="M113 0v645h-47v-630z" />
    <glyph glyph-name="twoarabic" unicode="&#x662;" horiz-adv-x="473" 
d="M407 606v39l-249 2q-92 -3 -92 -90v-542l47 -15v545q0 57 51 61h243z" />
    <glyph glyph-name="threearabic" unicode="&#x663;" horiz-adv-x="546" 
d="M480 495v152h-49v-146q0 -100 -56 -100t-79 89v157h-48v-146q0 -100 -57 -100q-56 0 -78 88v158h-47v-632l47 -15v406q31 -49 78 -49q69 0 94 70q28 -70 90 -70q48 0 76.5 37.5t28.5 100.5z" />
    <glyph glyph-name="fourarabic" unicode="&#x664;" horiz-adv-x="486" 
d="M420 0l-19 42h-156q-58 0 -96 37t-38 97q0 141 136 141h78v40h-78q-123 0 -123 125q0 61 34 94q34 30 87 30h122v39q-50 2 -122 2q-75 0 -121 -45t-46 -120q0 -103 89 -141q-101 -35 -101 -165q0 -80 50 -128t129 -48h175z" />
    <glyph glyph-name="fivearabic" unicode="&#x665;" horiz-adv-x="493" 
d="M427 216q0 148 -181 283q-180 -125 -180 -283q0 -94 47 -153q49 -63 133 -63q86 0 136 63q45 59 45 153zM380 216q0 -78 -31 -122q-34 -52 -103 -52t-103 52q-30 45 -30 122q0 129 133 232q134 -102 134 -232z" />
    <glyph glyph-name="sixarabic" unicode="&#x666;" horiz-adv-x="473" 
d="M407 15v542q0 87 -92 90l-249 -2v-39h243q51 -4 51 -61v-545z" />
    <glyph glyph-name="sevenarabic" unicode="&#x667;" horiz-adv-x="602" 
d="M536 645h-52l-184 -599l-182 599h-52l210 -645h50z" />
    <glyph glyph-name="eightarabic" unicode="&#x668;" horiz-adv-x="602" 
d="M536 0l-210 645h-50l-210 -645h52l182 600l184 -600h52z" />
    <glyph glyph-name="ninearabic" unicode="&#x669;" horiz-adv-x="474" 
d="M408 15v424q0 89 -41 145q-46 61 -130 61q-171 0 -171 -217q0 -218 171 -218q77 0 124 53v-263zM361 428q0 -176 -124 -176q-125 0 -125 176q0 177 125 177q124 0 124 -177z" />
    <glyph glyph-name="percentarabic" unicode="&#x66a;" horiz-adv-x="441" 
d="M197 518v67l-50 15v-67zM391 645h-41l-301 -645h41zM295 41v66l-51 15v-66z" />
    <glyph glyph-name="decimalseparatorarabic" unicode="&#x66b;" horiz-adv-x="130" 
d="M99 1v185l-37 -61v-124h37z" />
    <glyph glyph-name="thousandsseparatorarabic" unicode="&#x66c;" horiz-adv-x="130" 
d="M99 1v185l-37 -61v-124h37z" />
    <glyph glyph-name="asteriskarabic" unicode="&#x66d;" horiz-adv-x="500" 
d="M447 245l-9 20l-138 -20l-38 143h-20l-39 -143l-138 21l-9 -21l117 -93l-52 -139l17 -13l114 94l113 -94l17 15l-51 138z" />
    <glyph glyph-name="superscriptalef" unicode="&#x670;" 
d="M23 714h44v204h-44v-204z" />
    <glyph glyph-name="extendedarabicindicdigitzero" unicode="&#x6f0;" horiz-adv-x="201" 
d="M135 91v90l-69 21v-90z" />
    <glyph glyph-name="extendedarabicindicdigitone" unicode="&#x6f1;" horiz-adv-x="179" 
d="M113 0v645h-47v-630z" />
    <glyph glyph-name="extendedarabicindicdigittwo" unicode="&#x6f2;" horiz-adv-x="473" 
d="M407 606v39l-249 2q-92 -3 -92 -90v-542l47 -15v545q0 57 51 61h243z" />
    <glyph glyph-name="extendedarabicindicdigitthree" unicode="&#x6f3;" horiz-adv-x="546" 
d="M480 495v152h-49v-146q0 -100 -56 -100t-79 89v157h-48v-146q0 -100 -57 -100q-56 0 -78 88v158h-47v-632l47 -15v406q31 -49 78 -49q69 0 94 70q28 -70 90 -70q48 0 76.5 37.5t28.5 100.5z" />
    <glyph glyph-name="extendedarabicindicdigitfour" unicode="&#x6f4;" horiz-adv-x="486" 
d="M420 0l-19 42h-156q-58 0 -96 37t-38 97q0 141 136 141h78v40h-78q-123 0 -123 125q0 61 34 94q34 30 87 30h122v39q-50 2 -122 2q-75 0 -121 -45t-46 -120q0 -103 89 -141q-101 -35 -101 -165q0 -80 50 -128t129 -48h175z" />
    <glyph glyph-name="extendedarabicindicdigitfive" unicode="&#x6f5;" horiz-adv-x="493" 
d="M427 216q0 148 -181 283q-180 -125 -180 -283q0 -94 47 -153q49 -63 133 -63q86 0 136 63q45 59 45 153zM380 216q0 -78 -31 -122q-34 -52 -103 -52t-103 52q-30 45 -30 122q0 129 133 232q134 -102 134 -232z" />
    <glyph glyph-name="extendedarabicindicdigitsix" unicode="&#x6f6;" horiz-adv-x="473" 
d="M407 15v542q0 87 -92 90l-249 -2v-39h243q51 -4 51 -61v-545z" />
    <glyph glyph-name="extendedarabicindicdigitseven" unicode="&#x6f7;" horiz-adv-x="602" 
d="M536 645h-52l-184 -599l-182 599h-52l210 -645h50z" />
    <glyph glyph-name="extendedarabicindicdigiteight" unicode="&#x6f8;" horiz-adv-x="602" 
d="M536 0l-210 645h-50l-210 -645h52l182 600l184 -600h52z" />
    <glyph glyph-name="extendedarabicindicdigitnine" unicode="&#x6f9;" horiz-adv-x="474" 
d="M408 15v424q0 89 -41 145q-46 61 -130 61q-171 0 -171 -217q0 -218 171 -218q77 0 124 53v-263zM361 428q0 -176 -124 -176q-125 0 -125 176q0 177 125 177q124 0 124 -177z" />
    <glyph glyph-name="zeronojoin" unicode="&#x200c;" horiz-adv-x="20" 
d="M20 0v722h-20v-722h20z" />
    <glyph glyph-name="zerojoin" unicode="&#x200d;" horiz-adv-x="20" 
d="M71 663l-47 48l47 47l-14 14l-47 -48l-47 48l-14 -14l48 -47l-48 -48l14 -13l37 37v-687h20v687l37 -37z" />
    <glyph glyph-name="lefttoright" unicode="&#x200e;" horiz-adv-x="20" 
d="M134 711l-60 61l-14 -14l36 -36h-96v-722h20v702h78l-38 -38l14 -14z" />
    <glyph glyph-name="righttoleft" unicode="&#x200f;" horiz-adv-x="20" 
d="M20 0v722h-96l36 36l-14 14l-60 -61l60 -61l14 14l-38 38h78v-702h20z" />
    <glyph glyph-name="hyphenminus" unicode="&#x2010;" horiz-adv-x="454" 
d="M24 192h421v39h-421v-39z" />
    <glyph glyph-name="quotedblleft" unicode="&#x201c;" horiz-adv-x="213" 
d="M123 539q0 -32 24 -32t24 32q0 7 -14 96q-1 9 -10 9q-7 0 -8 -9q-16 -74 -16 -96zM48 539q0 -32 24 -32t24 32q0 7 -14 96q-2 9 -10 9q-6 0 -8 -9q-16 -74 -16 -96z" />
    <glyph glyph-name="quotedblright" unicode="&#x201d;" horiz-adv-x="213" 
d="M97 613q0 32 -24 32t-24 -32q0 -7 14 -96q1 -9 10 -9q7 0 8 9q16 74 16 96zM172 613q0 32 -24 32t-24 -32q0 -7 14 -96q2 -9 10 -9q6 0 8 9q16 74 16 96z" />
    <glyph glyph-name="delete" unicode="&#x2421;" horiz-adv-x="709" 
d="M674 57v31h-127v229h-36v-260h163zM479 57v31h-159v88h143v31h-143v79h153v31h-189v-260h195zM253 189q0 106 -79 124q-13 4 -46 4h-90v-260h95q21 0 41 5q79 19 79 127zM218 189q0 -55 -26 -83q-20 -18 -63 -18h-56v198h55q29 0 44 -5q46 -18 46 -92z" />
    <glyph glyph-name="ornateleftparenthesis" unicode="&#xfd3e;" horiz-adv-x="257" 
d="M195 -53q-41 39 -48 58q-15 29 -15 72v492q0 43 15 71q29 40 48 60l-32 31q-44 -44 -59 -72q-18 -33 -18 -85v-502q0 -51 18 -84q12 -22 24 -37l35 -36z" />
    <glyph glyph-name="ornaterightparenthesis" unicode="&#xfd3f;" horiz-adv-x="259" 
d="M173 72v502q0 52 -18 85q-37 49 -60 72l-33 -34q37 -37 49 -59q12 -26 12 -69v-492q0 -45 -12 -70q-29 -38 -49 -59l33 -33q47 47 60 73q18 32 18 84z" />
    <glyph glyph-name="zerowidthnobreakspace" unicode="&#xfeff;" 
 />
    <glyph glyph-name="CR" horiz-adv-x="333" 
 />
    <glyph glyph-name="_4" horiz-adv-x="280" 
 />
    <glyph glyph-name="_13" horiz-adv-x="273" 
 />
    <glyph glyph-name="kashidaautoarabic" horiz-adv-x="80" 
d="M100 0v42h-112v-42h112z" />
    <glyph glyph-name="nonbreakingspace" horiz-adv-x="623" 
 />
    <glyph glyph-name="_246" 
 />
  </font>
</defs>
</svg>
